(Histoire) La grande histoire de l'âge de pierre (2013)

Posted By: Morocco
(Histoire) La grande histoire de l'âge de pierre (2013)

(Histoire) La grande histoire de l'âge de pierre (2013)
TNT-Rip by Clo2 | French | 1h23min | 640 x 480 | 25.000 fps | MP4 | AVC High@L3.1 @ 900 Kbps | MPEG Audio @ 112 Kbps | 599 MB
Genre : Documentaire

De l'âge de pierre à l'âge de bronze, les développements accomplis par l'Humanité sont considérables. Composé de reconstitutions de qualité, entrecoupées de témoignages d'archéologues rencontrés sur leurs sites de fouilles, le documentaire de Roger Scholes permet de mesurer combien l'agriculture, mais aussi des organisations sociales complexes et des représentations religieuses élaborées ont modifié le visage de l'Humanité lors de l'âge de pierre.

Format : MPEG-4
Format profile : Base Media / Version 2
Codec ID : mp42
File size : 599 MiB
Duration : 1h 23mn
Overall bit rate mode : Variable
Overall bit rate : 1 008 Kbps
Encoded date : UTC 2013-01-12 00:23:22
Tagged date : UTC 2013-01-12 00:23:41

Video
ID : 1
Format : AVC
Format/Info : Advanced Video Codec
Format profile : High@L3.1
Format settings, CABAC : Yes
Format settings, ReFrames : 4 frames
Codec ID : avc1
Codec ID/Info : Advanced Video Coding
Duration : 1h 23mn
Bit rate mode : Variable
Bit rate : 900 Kbps
Width : 640 pixels
Height : 480 pixels
Display aspect ratio : 4:3
Frame rate mode : Variable
Frame rate : 25.000 fps
Minimum frame rate : 24.718 fps
Maximum frame rate : 100.000 fps
Color space : YUV
Chroma subsampling : 4:2:0
Bit depth : 8 bits
Scan type : Progressive
Bits/(Pixel*Frame) : 0.117
Stream size : 535 MiB (89%)
Writing library : x264 core 129 r2230 1cffe9f
Encoding settings : cabac=1 / ref=3 / deblock=1:0:0 / analyse=0x3:0x113 / me=hex / subme=7 / psy=1 / psy_rd=1.00:0.00 / mixed_ref=1 / me_range=16 / chroma_me=1 / trellis=1 / 8x8dct=1 / cqm=0 / deadzone=21,11 / fast_pskip=1 / chroma_qp_offset=-2 / threads=12 / lookahead_threads=2 / sliced_threads=0 / nr=0 / decimate=1 / interlaced=0 / bluray_compat=0 / constrained_intra=0 / bframes=3 / b_pyramid=2 / b_adapt=1 / b_bias=0 / direct=1 / weightb=1 / open_gop=0 / weightp=2 / keyint=250 / keyint_min=25 / scenecut=40 / intra_refresh=0 / rc_lookahead=40 / rc=2pass / mbtree=1 / bitrate=900 / ratetol=1.0 / qcomp=0.60 / qpmin=0 / qpmax=69 / qpstep=4 / cplxblur=20.0 / qblur=0.5 / ip_ratio=1.40 / aq=1:1.00
Encoded date : UTC 2013-01-12 00:23:22
Tagged date : UTC 2013-01-12 00:23:41

Audio
ID : 2
Format : MPEG Audio
Format version : Version 1
Format profile : Layer 3
Mode : Joint stereo
Mode extension : MS Stereo
Codec ID : 69
Duration : 1h 23mn
Bit rate mode : Variable
Bit rate : 103 Kbps
Nominal bit rate : 112 Kbps
Channel(s) : 2 channels
Sampling rate : 48.0 KHz
Compression mode : Lossy
Stream size : 61.0 MiB (10%)
Writing library : LAME3.98r
Encoding settings : -m j -V 4 -q 2 -lowpass 15.6 –abr 112
Encoded date : UTC 2013-01-12 00:23:22
Tagged date : UTC 2013-01-12 00:23:41


(Histoire) La grande histoire de l'âge de pierre (2013)

(Histoire) La grande histoire de l'âge de pierre (2013)

(Histoire) La grande histoire de l'âge de pierre (2013)

(Histoire) La grande histoire de l'âge de pierre (2013)

No Pass ;)