Heroes: El documental official de la Copa del Mundo 1986 (1987)

Posted By: Siddharta
Heroes: El documental official de la Copa del Mundo 1986 (1987)

Heroes: El documental official de la Copa del Mundo 1986 (1987)
1987 | Español | MPEG-4 AVC 628Kbps | AAC 96.0 Kbps 48.0 KHz | 86 min | 512x384 | 404MB
Géneros: Documental, Deporte

Director: Tony Maylam
Guión: Tony Maylam
Productor: Worldmark-Samuelson International Productions
Género: Documental, Deporte
Sinopsis: Documental oficial de la copa del mundo de 1986, resaltando al capitán de Argentina, Diego Maradona. Además aparecen Francescolli, Platini, Elkajer, Lineker, Rummenigge, Butragueno, Hugo Sanchés, Sócrates, Laudrup, entre otros.

Imágenes:
Heroes: El documental official de la Copa del Mundo 1986 (1987)

Heroes: El documental official de la Copa del Mundo 1986 (1987)

Heroes: El documental official de la Copa del Mundo 1986 (1987)


General
Format : MPEG-4
Format profile : Base Media / Version 2
Codec ID : mp42
File size : 10.5 MiB
Duration : 1h 19mn
Overall bit rate : 18.4 Kbps

Video
ID : 1
Format : AVC
Format/Info : Advanced Video Codec
Format profile : Main@L2.1
Format settings, CABAC : Yes
Format settings, ReFrames : 2 frames
Codec ID : avc1
Codec ID/Info : Advanced Video Coding
Duration : 1h 19mn
Bit rate mode : Variable
Bit rate : 628 Kbps
Width : 512 pixels
Height : 384 pixels
Display aspect ratio : 4:3
Frame rate mode : Variable
Frame rate : 23.976 fps
Minimum frame rate : 23.974 fps
Maximum frame rate : 23.981 fps
Color space : YUV
Chroma subsampling : 4:2:0
Bit depth : 8 bits
Scan type : Progressive
Bits/(Pixel*Frame) : 0.133
Stream size : 356 MiB
Writing library : x264 core 79
Encoding settings : cabac=1 / ref=2 / deblock=1:0:0 / analyse=0x1:0x111 / me=hex / subme=6 / psy=1 / psy_rd=1.0:0.0 / mixed_ref=0 / me_range=16 / chroma_me=1 / trellis=0 / 8x8dct=0 / cqm=0 / deadzone=21,11 / chroma_qp_offset=-2 / threads=1 / nr=0 / decimate=1 / mbaff=0 / constrained_intra=0 / bframes=2 / b_pyramid=0 / b_adapt=1 / b_bias=0 / direct=1 / wpredb=0 / wpredp=2 / keyint=240 / keyint_min=24 / scenecut=40 / rc_lookahead=40 / rc=abr / mbtree=1 / bitrate=628 / ratetol=1.0 / qcomp=0.60 / qpmin=10 / qpmax=51 / qpstep=4 / ip_ratio=1.40 / aq=1:1.00
Encoded date : UTC 2010-12-30 22:43:44
Tagged date : UTC 2010-12-31 01:16:45
Color primaries : BT.601-6 525, BT.1358 525, BT.1700 NTSC, SMPTE 170M
Transfer characteristics : BT.709-5, BT.1361
Matrix coefficients : BT.601-6 525, BT.1358 525, BT.1700 NTSC, SMPTE 170M

Audio
ID : 2
Format : AAC
Format/Info : Advanced Audio Codec
Format profile : LC
Codec ID : 40
Duration : 1h 19mn
Bit rate mode : Variable
Bit rate : 80.0 Kbps
Maximum bit rate : 92.6 Kbps
Channel(s) : 2 channels
Channel positions : Front: L R
Sampling rate : 48.0 KHz
Compression mode : Lossy
Stream size : 45.5 MiB
Encoded date : UTC 2010-12-30 22:43:44
Tagged date : UTC 2010-12-31 01:16:45


Descarga



mirror