Tags
Language
Tags

HC - How Bruce Lee Changed The World (2009)

Posted By: notbanned
SD / HDTV
HC - How Bruce Lee Changed The World (2009)

HC - How Bruce Lee Changed The World (2009)
HDTV | 624x352 | .AVI/XviD @ 948 Kbps | 1 h 30 min | 702 MiB
Audio: English MP3 128 kbps, 2 channels | Subs: None
Genre: Documentary

The History Channel's How Bruce Lee Changed the World explores the amazing multitude of ways that Bruce Lee–the first international Asian superstar–has influenced pop culture. Calling Lee "the biggest movie star in history" is a bit of a stretch (though every shot of this hypnotically charismatic performer argues that he might have been, had he not died abruptly before the release of his fourth and most successful movie, Enter the Dragon). A wealth of interviewees, ranging from filmmakers like Jackie Chan (who was a stunt man on Lee's movies in his early career), John Woo, and Brett Ratner, comedians like Eddie Griffin and Margaret Cho, musicians like LL Cool J, RZA, and Damon Albarn, athletes like boxer Sugar Ray Leonard and bodybuilder Flex Wheeler, and more, testify to the enormous impression Lee had on them. The documentary overreaches at some points, but there's no denying that Lee brought martial arts movies to the West and redefined the image of Asian men in the public consciousness (before him, Asian men were fiends like Fu Manchu, servants, or buffoons). Lee's life history is efficiently told and some of the details are delightful–who would have guessed Lee was a champion cha-cha dancer in Hong Kong? His audition for The Green Hornet reveals a movie star just waiting to be discovered. The man himself–lithe and muscular, capable of astonishing speed and grace, radiating both intelligence and passion–makes all commentary unnecessary.

General
Complete name : history.channel.how.bruce.lee.changed.the.world.avi
Format : AVI
Format/Info : Audio Video Interleave
File size : 702 MiB
Duration : 1 h 30 min
Overall bit rate mode : Variable
Overall bit rate : 1 085 kb/s

Video
ID : 0
Format : MPEG-4 Visual
Format profile : Advanced Simple@L5
Format settings, BVOP : 2
Format settings, QPel : No
Format settings, GMC : No warppoints
Format settings, Matrix : Default (H.263)
Codec ID : XVID
Codec ID/Hint : XviD
Duration : 1 h 30 min
Bit rate : 948 kb/s
Width : 624 pixels
Height : 352 pixels
Display aspect ratio : 16:9
Frame rate : 29.970 (30000/1001) FPS
Color space : YUV
Chroma subsampling : 4:2:0
Bit depth : 8 bits
Scan type : Progressive
Compression mode : Lossy
Bits/(Pixel*Frame) : 0.144
Stream size : 614 MiB (87%)
Writing library : XviD 1.2.1 (UTC 2008-12-04)

Audio
ID : 1
Format : MPEG Audio
Format version : Version 1
Format profile : Layer 3
Mode : Joint stereo
Mode extension : MS Stereo
Codec ID : 55
Codec ID/Hint : MP3
Duration : 1 h 30 min
Bit rate mode : Variable
Bit rate : 128 kb/s
Channel(s) : 2 channels
Sampling rate : 48.0 kHz
Compression mode : Lossy
Stream size : 79.8 MiB (11%)
Alignment : Aligned on interleaves
Interleave, duration : 24 ms (0.72 video frame)
Interleave, preload duration : 517 ms


Screenshots:

HC - How Bruce Lee Changed The World (2009)

HC - How Bruce Lee Changed The World (2009)

HC - How Bruce Lee Changed The World (2009)

HC - How Bruce Lee Changed The World (2009)