Tags
Language
Tags
April 2024
Su Mo Tu We Th Fr Sa
31 1 2 3 4 5 6
7 8 9 10 11 12 13
14 15 16 17 18 19 20
21 22 23 24 25 26 27
28 29 30 1 2 3 4

National Geographic - How Sherlock Changed the World (2013)

Posted By: Tutorial
National Geographic - How Sherlock Changed the World (2013)

National Geographic - How Sherlock Changed the World (2013)
PDTV | 960x540 | .MP4/AVC @ 1814 Kbps | 1h 27mn | English AAC 160 Kbps, 2 channels | 1.22 GB
Genre: Documentary

In How Sherlock Changed The World forensic scientists, crime historians and Sherlockian experts reveal the surprising impact Arthur Conan Doyles fictional character had on the development of real-life crime investigations and forensic science A crime fighter before his time, Holmes popularised techniques, instruments and a special method of reasoning that went on to solve many crimes. An advocate of protecting crime scenes from contamination, as well as subjecting minute pieces of trace evidence to tremendous scientific security, Holmes relied on toxicology and ballistics and examined shoe and tyre impressions, blood stains, fingerprints and handwriting long before it became standard procedure Exploring how he solved crimes through seemingly inconsequential details and invisible evidence, this documentary explores the influence of his master sleuthing, revealing why he is the only fictional character ever to be honoured by the Royal Chemistry Society
As well as hearing from scientists, detectives and even criminals who were inspired by him, many of the high-profile crimes that have been solved thanks to his ingenious and revolutionary techniques are explored.
More info: IMDB

General
Complete name : How.Sherlock.Changed.the.World.mp4
Format : MPEG-4
Format profile : Base Media
Codec ID : isom
File size : 1.22 GiB
Duration : 1h 27mn
Overall bit rate mode : Variable
Overall bit rate : 1 979 Kbps
Encoded date : UTC 2013-10-08 23:43:23
Tagged date : UTC 2013-10-08 23:43:23
Writing application : Lavf51.12.1

Video
ID : 1
Format : AVC
Format/Info : Advanced Video Codec
Format profile : High@L3.1
Format settings, CABAC : No
Format settings, ReFrames : 1 frame
Format settings, GOP : M=1, N=12
Codec ID : avc1
Codec ID/Info : Advanced Video Coding
Duration : 1h 27mn
Bit rate : 1 814 Kbps
Width : 960 pixels
Height : 540 pixels
Display aspect ratio : 16:9
Frame rate mode : Constant
Frame rate : 25.000 fps
Color space : YUV
Chroma subsampling : 4:2:0
Bit depth : 8 bits
Scan type : Progressive
Bits/(Pixel*Frame) : 0.140
Stream size : 1.11 GiB (92%)
Encoded date : UTC 2013-10-08 23:43:23
Tagged date : UTC 2013-10-08 23:43:23

Audio
ID : 2
Format : AAC
Format/Info : Advanced Audio Codec
Format profile : LC
Codec ID : 40
Duration : 1h 27mn
Bit rate mode : Variable
Bit rate : 160 Kbps
Channel(s) : 2 channels
Channel positions : Front: L R
Sampling rate : 48.0 KHz
Compression mode : Lossy
Stream size : 101 MiB (8%)
Encoded date : UTC 2013-10-08 23:43:23
Tagged date : UTC 2013-10-08 23:43:23
Screenshots

National Geographic - How Sherlock Changed the World (2013)

National Geographic - How Sherlock Changed the World (2013)

National Geographic - How Sherlock Changed the World (2013)

National Geographic - How Sherlock Changed the World (2013)

National Geographic - How Sherlock Changed the World (2013)

Welcome to my blog - daily update!