Tags
Language
Tags

Hunting the Hammerhead (2015)

Posted By: notbanned
1080p (FullHD) / HDTV
Hunting the Hammerhead (2015)

Hunting the Hammerhead (2015)
HDTV | 1920x1080 | .MKV/AVC @ 4500 Kbps | 46 min 1 s | 1.51 GiB
Audio: English AC3 192 kbps, 2 channels | Subs: English
Genre: Documentary

The great hammerhead is one of the most advanced predators of the ocean, equipped with incredible senses that drive it to detect, locate, and devour its prey. But what triggers each of its hunting mechanisms? How does it lock onto prey with eyes that are so far apart? And why is its head shaped like a hammer? Follow shark experts as they dive into dangerous waters and use a series of modern experiments. Then join conservation biologist Dr. Craig O'Connell to go beneath the skin of this giant in a unique dissection of this mysterious creature.

General
Unique ID : 0 (0x0)
Complete name : hunting.the.hammerhead.2015.1080p.mkv
Format : Matroska
Format version : Version 4 / Version 2
File size : 1.51 GiB
Duration : 46 min 1 s
Overall bit rate : 4 694 kb/s

Video
ID : 1
Format : AVC
Format/Info : Advanced Video Codec
Format profile : High@L4
Format settings, CABAC : Yes
Format settings, ReFrames : 2 frames
Codec ID : V_MPEG4/ISO/AVC
Duration : 46 min 1 s
Bit rate mode : Constant
Bit rate : 4 500 kb/s
Width : 1 920 pixels
Height : 1 080 pixels
Display aspect ratio : 16:9
Frame rate mode : Constant
Frame rate : 29.970 (30000/1001) FPS
Color space : YUV
Chroma subsampling : 4:2:0
Bit depth : 8 bits
Scan type : Progressive
Bits/(Pixel*Frame) : 0.072
Stream size : 1.42 GiB (94%)
Default : Yes
Forced : No
Statistics Tags Issue : no_variable_data 1970-01-01 00:00:00 / no_variable_data 2010-02-22 21:41:29
FromStats_BitRate : 4499817
FromStats_Duration : 00:46:01.558000000
FromStats_FrameCount : 82764
FromStats_StreamSize : 1553313459

Audio
ID : 2
Format : AC-3
Format/Info : Audio Coding 3
Format settings, Endianness : Big
Codec ID : A_AC3
Duration : 46 min 1 s
Bit rate mode : Constant
Bit rate : 192 kb/s
Channel(s) : 2 channels
Channel positions : Front: L R
Sampling rate : 48.0 kHz
Frame rate : 31.250 FPS (1536 spf)
Bit depth : 16 bits
Compression mode : Lossy
Stream size : 63.2 MiB (4%)
Service kind : Complete Main
Default : Yes
Forced : No
Statistics Tags Issue : no_variable_data 1970-01-01 00:00:00 / no_variable_data 2010-02-22 21:41:29
FromStats_BitRate : 192000
FromStats_Duration : 00:46:01.600000000
FromStats_FrameCount : 86300
FromStats_StreamSize : 66278400

Text
ID : 3
Format : UTF-8
Codec ID : S_TEXT/UTF8
Codec ID/Info : UTF-8 Plain Text
Title : English
Language : English
Default : No
Forced : No
Statistics Tags Issue : no_variable_data 1970-01-01 00:00:00 / no_variable_data 2010-02-22 21:41:29
FromStats_BitRate : 84
FromStats_Duration : 00:45:53.282000000
FromStats_FrameCount : 728
FromStats_StreamSize : 29193


Screenshots:

Hunting the Hammerhead (2015)

Hunting the Hammerhead (2015)

Hunting the Hammerhead (2015)

Hunting the Hammerhead (2015)