Tags
Language
Tags

In Search of Mozart (2006)

Posted By: Tutorial
In Search of Mozart (2006)

In Search of Mozart (2006)
DVDRip | 720 x 480 | .AVI/XviD @ 1195 Kbps | 2h 8mn | English MP3 128 Kbps, 2 channels | 1.20 GB
Genre: Documentary, Arts, Music

In Search of Mozart" is an utterly fascinating documentary which brings the brilliant, sometimes tragic, bawdy and all too human composer to life. Using a combination of his letters read evocatively by leading actors, hundreds of musical clips of orchestras and singers, interviews with scholars and musicians, as well as present day footage of the very long roads he traveled (he was on tour about 1/3 of the days of his short life), Mozart becomes as real as if he sat down to dinner with you. I had the privilege to see this film at Lincoln Center where people laughed and cried and crowded around after to buy the DVD. A film for those who know nothing about Mozart to those who have studied him all their lives."
More info: IMDB

also You can look my other last: Music-posts

General
Complete name : In Search of Mozart [2006].avi
Format : AVI
Format/Info : Audio Video Interleave
Format profile : OpenDML
File size : 1.20 GiB
Duration : 2h 8mn
Overall bit rate : 1 339 Kbps
Movie name : BSkyB.In.Search.of.Mozart.PDTV.x264.AAC.
Director : created.with.SUPER(C).v2009.bld.36
Writing application : SUPER(C)

Video
ID : 0
Format : MPEG-4 Visual
Format profile : Simple@L3
Format settings, BVOP : No
Format settings, QPel : No
Format settings, GMC : No warppoints
Format settings, Matrix : Default (H.263)
Codec ID : XVID
Codec ID/Hint : XviD
Duration : 2h 8mn
Bit rate : 1 195 Kbps
Width : 720 pixels
Height : 480 pixels
Display aspect ratio : 16:9
Frame rate : 25.000 fps
Standard : NTSC
Color space : YUV
Chroma subsampling : 4:2:0
Bit depth : 8 bits
Scan type : Progressive
Compression mode : Lossy
Bits/(Pixel*Frame) : 0.138
Stream size : 1.07 GiB (89%)
Writing library : XviD 1.1.2 (UTC 2006-11-01)

Audio
ID : 1
Format : MPEG Audio
Format version : Version 1
Format profile : Layer 3
Mode : Joint stereo
Mode extension : MS Stereo
Codec ID : 55
Codec ID/Hint : MP3
Duration : 2h 8mn
Bit rate mode : Constant
Bit rate : 128 Kbps
Channel(s) : 2 channels
Sampling rate : 48.0 KHz
Compression mode : Lossy
Stream size : 118 MiB (10%)
Alignment : Aligned on interleaves
Interleave, duration : 24 ms (0.60 video frame)
Interleave, preload duration : 24 ms
Screenshots

In Search of Mozart (2006)

In Search of Mozart (2006)

In Search of Mozart (2006)

In Search of Mozart (2006)

Welcome to my blog - daily update!