(Arte) Jeans, une planète en bleu (2013)

Posted By: Morocco
(Arte) Jeans, une planète en bleu (2013)

(Arte) Jeans, une planète en bleu (2013)
TNT-Rip by Clo2 | French | 56min | 640 x 368 | 25.000 fps | MP4 | AVC High@L4.0 @ 801 Kbps | MPEG Audio @ 101 Kbps | 361 MB
Genre : Documentaire

Le monde vu au travers du blue-jean, vêtement universel et increvable, pantalon du travailleur devenu icône de la contre-culture.

En 2000, dans une mine d'argent abandonnée, des étudiants californiens découvrent un jean Levi's datant des années 1880. Mis aux enchères sur eBay, ce jean, vendu à l'origine 0,99 $, atteint 46 532 $ ! Cette histoire incroyable est un précipité de ce que représente le jean : objet de masse tissé de légende, témoin de la naissance du monde industriel, héros du Far West, vêtement planétaire, unisexe et transgénérationnel, icône de la modernité depuis cent cinquante ans. Traversant le marketing balbutiant, l'Internet, l'univers des collectionneurs, les bouleversements politiques jusqu'à la mondialisation, le jean, dont la longévité et la popularité défient le temps, se pose en véritable mystère…

Éternelle jouvence

"Ce qui fascine dans le jean, c'est sa capacité à resurgir partout et sous n'importe quel prétexte. Parle-t-on de mondialisation, de travail des enfants, d'écologie ou de dysfonctionnement de nos sociétés capitalistes ? Le jean est là, dans son côté pollueur, dans sa commercialisation agressive ou son irruption soudaine dans le concept de commerce équitable. Parle-t-on de la naissance de l'industrie ? Le jean est un des premiers objets fabriqués à la chaîne dès le milieu du XIXe siècle, premier item à être conçu pour être facile à fabriquer, pas à être porté. L'émergence d'une culture de masse ? Le jean est porté par les rockers et les stars d'Hollywood et submerge le monde de l'après-guerre. La contre-culture ? Le jean est l'emblème du flower power, du punk et du gangsta rap et de toutes les révoltes du XXe siècle. Publicité et mass médias ? Le marketing a été inventé par Levi's et son étiquette cuir a été la première publicité portée par les clients de la marque. Le blue-jean est là, partout, à chaque fois, impassible et amusé, comme s'il narguait nos capacités d'analyse et d'explications rationnelles." (Thierry Aguila)

Format : MPEG-4
Format profile : Base Media / Version 2
Codec ID : mp42
File size : 361 MiB
Duration : 55mn 41s
Overall bit rate mode : Variable
Overall bit rate : 907 Kbps
Encoded date : UTC 2013-01-12 23:04:14
Tagged date : UTC 2013-01-12 23:04:17

Video
ID : 1
Format : AVC
Format/Info : Advanced Video Codec
Format profile : High@L4.0
Format settings, CABAC : Yes
Format settings, ReFrames : 4 frames
Codec ID : avc1
Codec ID/Info : Advanced Video Coding
Duration : 55mn 41s
Bit rate mode : Variable
Bit rate : 801 Kbps
Width : 640 pixels
Height : 368 pixels
Display aspect ratio : 1.739
Frame rate mode : Variable
Frame rate : 25.000 fps
Minimum frame rate : 24.563 fps
Maximum frame rate : 100.000 fps
Color space : YUV
Chroma subsampling : 4:2:0
Bit depth : 8 bits
Scan type : Progressive
Bits/(Pixel*Frame) : 0.136
Stream size : 319 MiB (88%)
Encoded date : UTC 2013-01-12 23:04:14
Tagged date : UTC 2013-01-12 23:04:17

Audio
ID : 2
Format : MPEG Audio
Format version : Version 1
Format profile : Layer 3
Mode : Joint stereo
Mode extension : MS Stereo
Codec ID : 69
Duration : 55mn 41s
Bit rate mode : Variable
Bit rate : 101 Kbps
Channel(s) : 2 channels
Sampling rate : 48.0 KHz
Compression mode : Lossy
Stream size : 40.1 MiB (11%)
Encoded date : UTC 2013-01-12 23:04:14
Tagged date : UTC 2013-01-12 23:04:17


(Arte) Jeans, une planète en bleu (2013)

(Arte) Jeans, une planète en bleu (2013)

(Arte) Jeans, une planète en bleu (2013)

(Arte) Jeans, une planète en bleu (2013)

(Arte) Jeans, une planète en bleu (2013)

(Arte) Jeans, une planète en bleu (2013)

No Pass ;)