Midnight in Saint Petersburg (1996)

Posted By: a_l_chemist
Midnight in Saint Petersburg (1996)

Midnight in Saint Petersburg (1996)
SATRip | AVI | XviD | 672x496, 1685 kbps | English: AC3, 2ch, 256 kbps | 01:25:54 | 1,23 GB
Genre: Thriller

Midnight in Saint Petersburg is a 1996 thriller film directed by Douglas Jackson, written by Harry Alan Towers and starring Michael Caine for the fifth time as British secret agent Harry Palmer. The film also starring Jason Connery, Michelle Burke and Tanya Jackson.

Midnight in Saint Petersburg (1996)

Plot: Harry Palmer heads a private investigation business based in Moscow. His associates are Nikolai "Nick" Petrov (Jason Connery), ex-CIA agent Craig (Michael Sarrazin), and ex-KGB Colonel Gradsky (Lev Prygunov). They take on the job of finding 1000 grams of weapons-grade plutonium stolen from the Russian government, though they do not know the identity of their client.
This leads Harry back to Saint Petersburg, where (in Bullet to Beijing) he managed to make enemies of both of the leading rival gangsters, Alex (Michael Gambon) and Yuri (Anatoli Davidov). Nonetheless, suspecting that Alex is involved, Harry talks Yuri into helping him.
As a complication, Nick's ballerina girlfriend Tatiana (Tanya Jackson) is kidnapped by a gang working for Alex into order to pressure her father, the head curator of the Hermitage Museum, into helping steal valuable artwork for crooked art dealer Dr. Vestry (Serge Houde). Also in the mix is reporter Brandy (Michelle Burke), who turns out also to be working for Alex. Nick is captured when he goes looking for Tatiana, but manages to escape in time to assist Harry, with Yuri's help, foil both schemes.
–from wikipedia
…..IMDb
Midnight in Saint Petersburg (1996)

Midnight in Saint Petersburg (1996)

Midnight in Saint Petersburg (1996)

Midnight in Saint Petersburg (1996)

Midnight in Saint Petersburg (1996)

General
Complete name : F:\Movies\Midnight in Saint Petersburg\Midnight in Saint Petersburg.avi
Format : AVI
Format/Info : Audio Video Interleave
File size : 1.17 GiB
Duration : 1h 25mn
Overall bit rate : 1 950 Kbps
Movie name : Midnight in Saint Petersburg
Writing application : VirtualDubMod 1.5.10.2 (build 2540/release)
Writing library : VirtualDubMod build 2540/release

Video
ID : 0
Format : MPEG-4 Visual
Format profile : Advanced Simple@L5
Format settings, BVOP : 2
Format settings, QPel : No
Format settings, GMC : No warppoints
Format settings, Matrix : Default (H.263)
Muxing mode : Packed bitstream
Codec ID : XVID
Codec ID/Hint : XviD
Duration : 1h 25mn
Bit rate : 1 685 Kbps
Width : 672 pixels
Height : 496 pixels
Display aspect ratio : 4:3
Frame rate : 25.000 fps
Color space : YUV
Chroma subsampling : 4:2:0
Bit depth : 8 bits
Scan type : Progressive
Compression mode : Lossy
Bits/(Pixel*Frame) : 0.202
Stream size : 1.01 GiB (86%)
Writing library : XviD 1.2.1 (UTC 2008-12-04)

Audio
ID : 1
Format : AC-3
Format/Info : Audio Coding 3
Mode extension : CM (complete main)
Codec ID : 2000
Duration : 1h 25mn
Bit rate mode : Constant
Bit rate : 256 Kbps
Channel(s) : 2 channels
Channel positions : Front: L R
Sampling rate : 48.0 KHz
Bit depth : 16 bits
Compression mode : Lossy
Stream size : 157 MiB (13%)
Alignment : Split accross interleaves
Interleave, duration : 40 ms (1.00 video frame)
Interleave, preload duration : 500 ms

Download:

Fileserve
List of links

Filesonic
List of links

Wupload
List of links

Interchangeable links

Prequel: Bullet to Beijing (1995)

My blog on AvaxHome

.: No Mirrors Please :.