Tags
Language
Tags
November 2022
Su Mo Tu We Th Fr Sa
30 31 1 2 3 4 5
6 7 8 9 10 11 12
13 14 15 16 17 18 19
20 21 22 23 24 25 26
27 28 29 30 1 2 3

Modern Family S09E01-07

Posted By: Tavaz
720p (HD) / WEBRip IMDb
Modern Family S09E01-07

Modern Family S09E01-07
WEB | MKV | 1280x720 | English | H264 @ 5526 kbps | AC-3 @ 384 kbps | 20 min 58s | 7x364 MiB
Subtitles: English
Genre: Comedy, Romance

Three different, but related families face trials and tribulations in their own uniquely comedic ways.


Modern.Family.S09E07.iNTERNAL.XviD-AFG.avi (280.2 MB)
modern.family.s09e05.its.the.great.pumpkin.phil.dunphy.1080p.web.dl.hevc.x265.rmteam.mkv (391.3 MB)
Modern.Family.S09E01.720p.HDTV.x264-FLEET-ReUp.mkv (904.9 MB)
modern.family.s09e03.catch.of.the.day.1080p.web.dl.hevc.x265.rmteam.mkv (364.7 MB)
Modern.Family.S09E06.iNTERNAL.XviD-AFG.avi (275.1 MB)
Modern.Family.S09E04.720p.HDTV.x264-AVS.mkv (649.2 MB)
modern.family.s09e02.1080p.web.hevc.x265.rmteam.mkv (364.0 MB)



General
Unique ID : 300898700136298214266101793197667729955 (0xE25EFB4F8270F2E48397B7C76D314223)
Complete name : ./Modern.Family.S09E01.720p.HDTV.x264-FLEET-ReUp.mkv
Format : Matroska
Format version : Version 4 / Version 2
File size : 905 MiB
Duration : 20 min 58 s
Overall bit rate : 6 031 kb/s
Writing application : Lavf57.82.100
Writing library : Lavf57.82.100
ErrorDetectionType : Per level 1

Video
ID : 1
Format : AVC
Format/Info : Advanced Video Codec
Format profile : High@L4.1
Format settings : CABAC / 5 Ref Frames
Format settings, CABAC : Yes
Format settings, RefFrames : 5 frames
Codec ID : V_MPEG4/ISO/AVC
Duration : 20 min 58 s
Bit rate : 5 527 kb/s
Width : 1 280 pixels
Height : 720 pixels
Display aspect ratio : 16:9
Frame rate mode : Constant
Frame rate : 23.976 (24000/1001) FPS
Color space : YUV
Chroma subsampling : 4:2:0
Bit depth : 8 bits
Scan type : Progressive
Bits/(Pixel*Frame) : 0.250
Stream size : 829 MiB (92%)
Writing library : x264 core 152 r2851 ba24899
Encoding settings : cabac=1 / ref=5 / deblock=1:0:0 / analyse=0x3:0x113 / me=hex / subme=8 / psy=1 / psy_rd=1.00:0.00 / mixed_ref=1 / me_range=16 / chroma_me=1 / trellis=2 / 8x8dct=1 / cqm=0 / deadzone=21,11 / fast_pskip=1 / chroma_qp_offset=-2 / threads=22 / lookahead_threads=3 / sliced_threads=0 / nr=0 / decimate=1 / interlaced=0 / bluray_compat=0 / constrained_intra=0 / bframes=3 / b_pyramid=2 / b_adapt=1 / b_bias=0 / direct=3 / weightb=1 / open_gop=0 / weightp=2 / keyint=250 / keyint_min=23 / scenecut=40 / intra_refresh=0 / rc_lookahead=50 / rc=crf / mbtree=1 / crf=18.0 / qcomp=0.60 / qpmin=0 / qpmax=69 / qpstep=4 / ip_ratio=1.40 / aq=1:1.00
Default : Yes
Forced : No
Color range : Limited
Matrix coefficients : BT.709

Audio
ID : 2
Format : AC-3
Format/Info : Audio Coding 3
Format settings, Endianness : Big
Codec ID : A_AC3
Duration : 20 min 58 s
Bit rate mode : Constant
Bit rate : 384 kb/s
Channel(s) : 6 channels
Channel positions : Front: L C R, Side: L R, LFE
Sampling rate : 48.0 kHz
Frame rate : 31.250 FPS (1536 SPF)
Bit depth : 16 bits
Compression mode : Lossy
Stream size : 57.6 MiB (6%)
Service kind : Complete Main
Default : Yes
Forced : No

Text
ID : 3
Format : ASS
Codec ID : S_TEXT/ASS
Codec ID/Info : Advanced Sub Station Alpha
Duration : 20 min 37 s
Compression mode : Lossless
Writing library : Lavc57.106.101 ssa
Default : No
Forced : No





Modern Family S09E01-07


Modern Family S09E01-07


Modern Family S09E01-07


Modern Family S09E01-07


Modern Family S09E01-07

All episodes