(Arte) Le monde selon Christophe Colomb (2013)

Posted By: Morocco
(Arte) Le monde selon Christophe Colomb (2013)

(Arte) Le monde selon Christophe Colomb (2013)
TNT-Rip by Clo2 | French | 53min | 720 x 400 | 25.000 fps | MP4 | AVC High@L3.1 @ 650 Kbps | MPEG Audio @ 103 Kbps | 288 MB
Genre : Documentaire

Comment, en quatre expéditions, Christophe Colomb a redessiné la carte du monde, le faisant basculer du Moyen Âge à la Renaissance. Retour minutieux sur la découverte inopinée de l'Amérique.

Jusque-là, on pensait la Terre constituée de trois continents : l'Europe, l'Afrique et l'Asie. Mais un navigateur opiniâtre d'origine génoise allait commencer à redessiner la carte du monde à partir de 1492. Convaincu que la Terre s'arrête avec la Chine, Christophe Colomb entreprend alors pour la première fois d'atteindre ce pays par l'Ouest. Aux commandes de trois caravelles armées par les souverains Ferdinand et Isabelle d'Espagne, cet admirateur de Marco Polo et de Jean de Mandeville, l'auteur du Livre des merveilles du monde, lève l'ancre le 30 août de cette année-là, bientôt poussé par les alizés.

La grandeur de l'échec

Une décennie, quatre voyages et nombre d'erreurs plus tard, porté par une indéfectible foi en Dieu qui lui vaut de penser qu'il a atteint le Paradis terrestre, ce marin d'exception bouleverse la cartographie héritée de Ptolémée. Car c'est dans son acharnement à ouvrir une nouvelle route commerciale vers la Chine et les Indes - et à échouer -, qu'il atteint le Nouveau Monde, s'obstinant à penser qu'il débarque à Cipango, le Japon évoqué par Marco Polo, quand il accoste à Cuba. À travers une riche iconographie (cartes et atlas anciens), les éclairages d'historiens, des extraits de ses écrits et le témoignage du navigateur Marc Thiercelin, le film retrace avec précision ses quatre périples, en quête d'épices et d'or pour l'Europe. S'il est écrit Terra incognita sur les cartes qu'il complète, il meurt en 1506, sans réaliser son rêve de rejoindre l'Asie par l'Ouest. Ce n'est qu'après sa mort que le continent sur lequel il a débarqué sera considéré comme le Nouveau monde. Entre-temps, le Moyen Âge aura laissé place à la Renaissance.

Format : MPEG-4
Format profile : Base Media / Version 2
Codec ID : mp42
File size : 288 MiB
Duration : 52mn 59s
Overall bit rate mode : Variable
Overall bit rate : 759 Kbps
Encoded date : UTC 2013-01-12 21:14:36
Tagged date : UTC 2013-01-12 21:14:39

Video
ID : 1
Format : AVC
Format/Info : Advanced Video Codec
Format profile : High@L3.1
Format settings, CABAC : Yes
Format settings, ReFrames : 4 frames
Codec ID : avc1
Codec ID/Info : Advanced Video Coding
Duration : 52mn 59s
Bit rate mode : Variable
Bit rate : 650 Kbps
Width : 720 pixels
Height : 400 pixels
Display aspect ratio : 16:9
Frame rate mode : Variable
Frame rate : 25.000 fps
Minimum frame rate : 24.563 fps
Maximum frame rate : 100.000 fps
Color space : YUV
Chroma subsampling : 4:2:0
Bit depth : 8 bits
Scan type : Progressive
Bits/(Pixel*Frame) : 0.090
Stream size : 246 MiB (86%)
Encoded date : UTC 2013-01-12 21:14:36
Tagged date : UTC 2013-01-12 21:14:39

Audio
ID : 2
Format : MPEG Audio
Format version : Version 1
Format profile : Layer 3
Mode : Joint stereo
Mode extension : MS Stereo
Codec ID : 69
Duration : 52mn 59s
Bit rate mode : Variable
Bit rate : 103 Kbps
Channel(s) : 2 channels
Sampling rate : 48.0 KHz
Compression mode : Lossy
Stream size : 39.2 MiB (14%)
Encoded date : UTC 2013-01-12 21:14:36
Tagged date : UTC 2013-01-12 21:14:39


(Arte) Le monde selon Christophe Colomb (2013)

(Arte) Le monde selon Christophe Colomb (2013)

(Arte) Le monde selon Christophe Colomb (2013)

(Arte) Le monde selon Christophe Colomb (2013)

(Arte) Le monde selon Christophe Colomb (2013)

(Arte) Le monde selon Christophe Colomb (2013)

No Pass ;)