Tags
Language
Tags

BBC - Morocco to Timbuktu: An Arabian Adventure: Series 1 (2017)

Posted By: Tutorial
BBC - Morocco to Timbuktu: An Arabian Adventure: Series 1 (2017)

BBC - Morocco to Timbuktu: An Arabian Adventure: Series 1 (2017)
HDTV | 1280 x 720 | .MP4/AVC @ 2507 Kbps | 2x~59mn | 2.29 GB
Audio: English AAC 160 Kbps, 2 channels | Subs: English
Genre: Documentary, Travel

Alice Morrison, Arabist and explorer, journeys beneath the veil along Africa's infamous salt roads from Morocco via the Sahara Desert to the legendary city of Gold, Timbuktu.
Part 1:
Writer and explorer Alice Morrison presents the first of two programmes in which she follows the salt roads of North Africa, once the world's richest trading networks, to the fabled sandstone city of Timbuktu. Setting off from Tangier, she learns how the routes were forged by the demand for gold from the mines of sub-Saharan Africa. She then passes through the Islamic city Fes, home to the world's oldest university, catches a train to the great market town of Marrakech and treks across the Atlas Mountains, before visiting the ancient caves of salt, the commodity that gave the roads their name.

Part 2:
Alice embarks on a camel trek over the dunes of the Sahara, 3.5 million square miles of desert, for the second and final part of her journey to Timbuktu. Along the way she visits a livestock market that centuries ago provided merchants with their camels, before reaching her final destination. Far from the legendary City of Gold, Timbuktu is a city where UN solders keep a fragile peace after an incursion by Islamic extremists in 2012. Alice relives the city's glorious past with a visit to its world famous mosques, meets the Tuaregs - desert nomads who have sought refuge in there - and celebrates at a party with her newfound friends.

also You can look my other last: Travel-posts

General
Complete name : BBC.Morocco.To.Timbuktu.An.Arabian.Adventure.Series.1.1of2.mp4
Format : MPEG-4
Format profile : Base Media
Codec ID : isom (isom)
File size : 1.10 GiB
Duration : 58 min 59 s
Overall bit rate mode : Variable
Overall bit rate : 2 670 kb/s
Encoded date : UTC 2017-05-18 21:57:41
Tagged date : UTC 2017-05-18 21:57:41
Writing application : My MP4Box GUI 0.6.0.6
Video
ID : 1
Format : AVC
Format/Info : Advanced Video Codec
Format profile : High@L4.1
Format settings, CABAC : Yes
Format settings, ReFrames : 4 frames
Codec ID : avc1
Codec ID/Info : Advanced Video Coding
Duration : 58 min 59 s
Bit rate : 2 507 kb/s
Maximum bit rate : 13.2 Mb/s
Width : 1 280 pixels
Height : 720 pixels
Display aspect ratio : 16:9
Frame rate mode : Variable
Frame rate : 25.000 FPS
Minimum frame rate : 1.621 FPS
Maximum frame rate : 25.000 FPS
Color space : YUV
Chroma subsampling : 4:2:0
Bit depth : 8 bits
Scan type : Progressive
Bits/(Pixel*Frame) : 0.109
Stream size : 1.03 GiB (94%)
Title : Morocco.To.Timbuktu.An.Arabian.Adventure.Series.1.1of2.720p.HDTV.x264.AAC
Writing library : x264 core 130 r2273 b3065e6
Encoding settings : cabac=1 / ref=1 / deblock=1:0:0 / analyse=0x3:0x3 / me=dia / subme=1 / psy=1 / psy_rd=1.00:0.00 / mixed_ref=0 / me_range=16 / chroma_me=1 / trellis=0 / 8x8dct=1 / cqm=0 / deadzone=21,11 / fast_pskip=1 / chroma_qp_offset=0 / threads=6 / lookahead_threads=1 / sliced_threads=0 / nr=0 / decimate=1 / interlaced=0 / bluray_compat=0 / constrained_intra=0 / bframes=3 / b_pyramid=2 / b_adapt=1 / b_bias=0 / direct=1 / weightb=1 / open_gop=0 / weightp=1 / keyint=250 / keyint_min=25 / scenecut=40 / intra_refresh=0 / rc_lookahead=0 / rc=crf / mbtree=0 / crf=22.0 / qcomp=0.60 / qpmin=0 / qpmax=69 / qpstep=4 / vbv_maxrate=62500 / vbv_bufsize=78125 / crf_max=0.0 / nal_hrd=none / ip_ratio=1.40 / pb_ratio=1.30 / aq=1:1.00
Encoded date : UTC 2017-05-18 18:31:34
Tagged date : UTC 2017-05-18 21:58:13
Color range : Limited
Color primaries : BT.709
Transfer characteristics : BT.709
Matrix coefficients : BT.709

Audio
ID : 2
Format : AAC
Format/Info : Advanced Audio Codec
Format profile : LC
Codec ID : 40
Duration : 58 min 59 s
Bit rate mode : Variable
Bit rate : 160 kb/s
Maximum bit rate : 279 kb/s
Channel(s) : 2 channels
Channel positions : Front: L R
Sampling rate : 48.0 kHz
Frame rate : 46.875 FPS (1024 spf)
Compression mode : Lossy
Stream size : 67.5 MiB (6%)
Title : Morocco.To.Timbuktu.An.Arabian.Adventure.Series.1.1of2.720p.HDTV.x264.AAC.
Language : English
Encoded date : UTC 2017-05-18 21:58:06
Tagged date : UTC 2017-05-18 21:58:13

Text
ID : 3
Format : Timed Text
Codec ID : tx3g
Duration : 58 min 32 s
Bit rate mode : Variable
Bit rate : 89 b/s
Stream size : 38.2 KiB (0%)
Title : Morocco.To.Timbuktu.An.Arabian.Adventure.Series.1.1of2.720p.HDTV.x264.AAC
Forced : No
Encoded date : UTC 2017-05-18 21:58:12
Tagged date : UTC 2017-05-18 21:58:13
Screenshots

BBC - Morocco to Timbuktu: An Arabian Adventure: Series 1 (2017)

BBC - Morocco to Timbuktu: An Arabian Adventure: Series 1 (2017)

BBC - Morocco to Timbuktu: An Arabian Adventure: Series 1 (2017)

Welcome to my blog - daily update!

BBC - Morocco to Timbuktu: An Arabian Adventure: Series 1 (2017)