Tags
Language
Tags

Murder 2 (2011)

Posted By: a_l_chemist
Murder 2 (2011)

Murder 2 (2011)
DVDRip | AVI | XviD | 608x256, 660 kbps | Hindi: MP3, 2ch, 96 kbps | 02:07:15 | 743 MB
Subs: English #1 (srt), English #2, Arabic (idx+sub)
Genre: Action | Crime | Drama

Murder 2 is a 2011 Bollywood thriller film directed by Mohit Suri and starring Emraan Hashmi, Jacqueline Fernandez and Sudhanshu Pandey.

Murder 2 (2011)

Plot: Arjun Bhagwat (Emraan Hashmi) is an ex-policeman, who used to work for Goa police. He is hungry for money and earns his bread by doing all wrong and good things and being an Atheist (Nastik), he doesn't believe in God but regularly visits church to donate fat bundles of money to orphans. In this process to earn more money, he meets a Goan gangster Sameer, who has been going through the bad phase of his business due to disappearance of his hookers. Sameer knows the investigative mind of Arjun and offers him huge amount to locate the missing girls. On the other hand, Priya (Jacqueline Fernandez) is a model, who is in a confused relationship with Arjun. During his investigation, Arjun finds a cell number which linked to missing girls. He then decides to send a dummy candidate to catch the culprit.
Reshma (Sulagna Panigrahi) is a college girl, however due to some circumstances, she gets involved in prostitution to feed her family. Sameer sends Reshma to a house after calling on that number. It is the house of Dheeraj Pandey (Prashant Narayanan). Dheeraj is a psychopath killer helped by his friend Pandita. He is the person who killed the missing hookers. He decides to do the same with Reshma however just to torture her he throws her into the bottom of a dark well were he has disposed the bodies of all the other hookers he has killed. Reshma soon manages to escape from Pandey's house as Pandey is called in for police questioning for the missing hookers. In between the investigation, Arjun and Dheeraj lock horns and land in police station. Dheeraj is investigated, trying to confuse the cops, finally accepts his crime to Mr. Khan, the police officer. However, Arjun has just one night to prove Dheeraj being a serial killer.
–from wikipedia
…..IMDb | Rovi
Murder 2 (2011)

Murder 2 (2011)

Murder 2 (2011)

Murder 2 (2011)

Murder 2 (2011)

General
Complete name : E:\Movies\Murder 2\Murder 2.avi
Format : AVI
Format/Info : Audio Video Interleave
File size : 696 MiB
Duration : 2h 7mn
Overall bit rate : 765 Kbps
Writing library : VirtualDub build 32661/release

Video
ID : 0
Format : MPEG-4 Visual
Format profile : Advanced Simple@L5
Format settings, BVOP : 2
Format settings, QPel : Yes
Format settings, GMC : No warppoints
Format settings, Matrix : Default (H.263)
Codec ID : XVID
Codec ID/Hint : XviD
Duration : 2h 7mn
Bit rate : 660 Kbps
Width : 608 pixels
Height : 256 pixels
Display aspect ratio : 2.35:1
Frame rate : 23.976 fps
Color space : YUV
Chroma subsampling : 4:2:0
Bit depth : 8 bits
Scan type : Progressive
Compression mode : Lossy
Bits/(Pixel*Frame) : 0.177
Stream size : 600 MiB (86%)
Writing library : XviD 1.2.1 (UTC 2008-12-04)

Audio
ID : 1
Format : MPEG Audio
Format version : Version 1
Format profile : Layer 3
Mode : Joint stereo
Mode extension : MS Stereo
Codec ID : 55
Codec ID/Hint : MP3
Duration : 2h 7mn
Bit rate mode : Constant
Bit rate : 96.0 Kbps
Channel(s) : 2 channels
Sampling rate : 32.0 KHz
Compression mode : Lossy
Stream size : 87.4 MiB (13%)
Alignment : Split accross interleaves
Interleave, duration : 42 ms (1.00 video frame)
Interleave, preload duration : 500 ms
Writing library : LAME3.98r

Download:

Filesonic
List of links

Wupload
List of links

Fileserve
List of links

Interchangeable links

My blog on AvaxHome

.: No Mirrors Please :.