(Arte) Musica leggera - Les chansons italiennes (2013)

Posted By: Morocco
(Arte) Musica leggera - Les chansons italiennes (2013)

(Arte) Musica leggera - Les chansons italiennes (2013)
TNT-Rip by Clo2 | French | 1h00min | 640 x 368 | 25.000 fps | MP4 | AVC High@L3.1 @ 805 Kbps | MPEG Audio @ 109 Kbps | 396 MB
Genre : Documentaire, Musique

"Volare, oho !" On a tous dans le coeur des bribes de tubes italiens. De la chanson napolitaine à Lucio Battisti, histoire de cette "musique légère" qui trouva son style inimitable dans les années 1960.

Quel est le secret de la variété italienne, cette musica leggera comme on l'appelle, qui, dès les premières notes, fait vibrer la corde sensible ? Douée du génie de la mélodie, elle plonge ses racines dans un mélange de chanson napolitaine, de bel canto et de mélodrame. L'immigration des Italiens du Sud vers les États-Unis, à la fin du XIXe siècle, l'exporte hors des frontières, par la voix du grand Caruso, et favorise les échanges entre les deux cultures. Certains chanteurs font glisser avec un humour très italien les archétypes américains vers le pathétique, tel Fred Buscaglione qui, dans "Che bambola", joue les caïds mais finit par se faire dérouiller par une blonde…

"Lasciatemi cantare !"

Refrain après refrain, la chanson italienne s'épanouit jusqu'à connaître son âge d'or dans les années 1960-1970. Les crooners sages aux mines compassées cèdent alors la place à des artistes plus vivants et provocants. Des chansons romantiques à texte de l'École de Gênes à la déferlante pop de Lucio Battisti en passant par les icônes sexys Adriano Celentano et Patty Pravo, le film s'attarde avec jubilation sur deux décennies durant lesquelles la variété italienne trouve durablement son style : les arrangements novateurs d'Ennio Morricone, un phrasé souple et une façon unique de "jeter la voix sans jamais la protéger". Puisant dans des images d'archives savoureuses - des facéties de Caruso aux saillies de Celentano -, le film s'appuie sur une série d'intervenants à la passion communicative, notamment les artistes Paolo Conte, Morgan, Massimo Ranieri ou Lucio Dalla.

Format : MPEG-4
Format profile : Base Media / Version 2
Codec ID : mp42
File size : 396 MiB
Duration : 1h 0mn
Overall bit rate mode : Variable
Overall bit rate : 919 Kbps
Encoded date : UTC 2013-01-06 00:58:56
Tagged date : UTC 2013-01-06 00:58:59

Video
ID : 1
Format : AVC
Format/Info : Advanced Video Codec
Format profile : High@L3.1
Format settings, CABAC : Yes
Format settings, ReFrames : 4 frames
Codec ID : avc1
Codec ID/Info : Advanced Video Coding
Duration : 1h 0mn
Bit rate mode : Variable
Bit rate : 805 Kbps
Width : 640 pixels
Height : 368 pixels
Display aspect ratio : 1.739
Frame rate mode : Variable
Frame rate : 25.000 fps
Minimum frame rate : 24.718 fps
Maximum frame rate : 100.000 fps
Color space : YUV
Chroma subsampling : 4:2:0
Bit depth : 8 bits
Scan type : Progressive
Bits/(Pixel*Frame) : 0.137
Stream size : 347 MiB (88%)
Encoded date : UTC 2013-01-06 00:58:56
Tagged date : UTC 2013-01-06 00:58:59

Audio
ID : 2
Format : MPEG Audio
Format version : Version 1
Format profile : Layer 3
Mode : Joint stereo
Mode extension : MS Stereo
Codec ID : 69
Duration : 1h 0mn
Bit rate mode : Variable
Bit rate : 109 Kbps
Channel(s) : 2 channels
Sampling rate : 48.0 KHz
Compression mode : Lossy
Stream size : 47.0 MiB (12%)
Encoded date : UTC 2013-01-06 00:58:56
Tagged date : UTC 2013-01-06 00:58:59


(Arte) Musica leggera - Les chansons italiennes (2013)

(Arte) Musica leggera - Les chansons italiennes (2013)

(Arte) Musica leggera - Les chansons italiennes (2013)

(Arte) Musica leggera - Les chansons italiennes (2013)

(Arte) Musica leggera - Les chansons italiennes (2013)

(Arte) Musica leggera - Les chansons italiennes (2013)

No Pass ;)