(Arte) Le mystère de la disparition des abeilles (2010)

Posted By: Morocco
(Arte) Le mystère de la disparition des abeilles (2010)

(Arte) Le mystère de la disparition des abeilles (2010)
TNT-Rip by Clo2 | French | 1h46min | 576 x 320 | 25.000 fps | Avi | MPEG-4 XviD @ 744 Kbps | MP3 @ 112 Kbps | 658 MB
Genre : Documentaire

Aujourd’hui, un tiers de notre nourriture dépend directement de l’abeille, le pollinisateur agricole le plus important de notre planète. Or, depuis plusieurs années, des millions d’abeilles disparaissent mystérieusement. Pourquoi ? Serons-nous capables de faire face à cette catastrophe annoncée ? Enquête sur un désastre écologique mondial qui pourrait mettre en péril l’humanité toute entière.

Des ruches désertées. À l'extérieur, pas de cadavres. À l'intérieur une reine en bonne santé, des larves viables et une poignée de jeunes ouvrières affaiblies. Mais nulle trace des ouvrières. C'est le syndrome d'effondrement des colonies, un mal foudroyant qui décime les colonies d'abeilles par centaines de milliers depuis 2006. Cette situation d'urgence menace de précipiter un peu plus le déclin inexorable des abeilles. Elles constituent un rouage irremplaçable de notre agriculture. Sans abeille, pas de pollinisation des fleurs, et sans pollinisation, pas de fruits ni de légumes.

Contrainte de trouver une solution, l'humanité est confrontée à un problème aux ramifications multiples et entrecroisées, que le film de Mark Daniels décortique point par point. Il plante ainsi sa caméra dans les gigantesques champs d'amandiers de Californie, dont le poids dans l'économie locale entraîne les agriculteurs dans une perpétuelle fuite en avant. En manque d'abeilles en 2005, ils en importent en masse d'Australie; un an plus tard, le syndrome d’effondrement des colonies apparaît. Saturant leurs plantations de pesticides, obligeant des milliards d'abeilles à des transhumances éreintantes, remplaçant fréquemment leurs reines, ils jouent aux apprentis-sorciers de la biologie.

Aujourd’hui, les études scientifiques ont prouvé que nous devons faire face à une multiplicité de facteurs. Mais récemment, de nouvelles recherches ont révélé que les interactions entre ces différents facteurs amplifient fortement leurs effets. Impossible, par exemple, d’incriminer les seuls pesticides comme dans les années 1990. En revanche, combinés à un virus, ou à un champignon, les effets de ces produits pourraient être multipliés. Est-ce là la réponse à l’énigme ?

Efficace et rigoureuse, l’enquête menée par Mark Daniels, qui a nécessité 18 mois de tournage, réussit le tour de force de rendre avec clarté un problème aux enjeux complexes. Dans les champs où les abeilles butinent, derrière l'œilleton des microscopes ou auprès d'un apiculteur écossais philosophe, sa caméra fait le tour d'une planète apicole expressive et diverse, qui doute et s'interroge.

Format : AVI
Format/Info : Audio Video Interleave
File size : 658 MiB
Duration : 1h 46mn
Overall bit rate : 866 Kbps
Writing application : VirtualDubMod 1.5.10.3 Fr | www.virtualdub-fr.org || (build 2550/release)
Writing library : VirtualDubMod build 2550/release

Video
ID : 0
Format : MPEG-4 Visual
Format profile : Advanced Simple@L5
Format settings, BVOP : 2
Format settings, QPel : No
Format settings, GMC : No warppoints
Format settings, Matrix : Default (H.263)
Muxing mode : Packed bitstream
Codec ID : XVID
Codec ID/Hint : XviD
Duration : 1h 46mn
Bit rate : 744 Kbps
Width : 576 pixels
Height : 320 pixels
Display aspect ratio : 16:9
Frame rate : 25.000 fps
Color space : YUV
Chroma subsampling : 4:2:0
Bit depth : 8 bits
Scan type : Progressive
Compression mode : Lossy
Bits/(Pixel*Frame) : 0.162
Stream size : 566 MiB (86%)
Writing library : XviD 1.2.1 (UTC 2008-12-04)

Audio
ID : 1
Format : MPEG Audio
Format version : Version 1
Format profile : Layer 3
Mode : Joint stereo
Mode extension : MS Stereo
Codec ID : 55
Codec ID/Hint : MP3
Duration : 1h 46mn
Bit rate mode : Constant
Bit rate : 112 Kbps
Channel(s) : 2 channels
Sampling rate : 48.0 KHz
Compression mode : Lossy
Stream size : 85.1 MiB (13%)
Alignment : Split accross interleaves
Interleave, duration : 40 ms (1.00 video frame)
Interleave, preload duration : 500 ms


(Arte) Le mystère de la disparition des abeilles (2010)

(Arte) Le mystère de la disparition des abeilles (2010)

(Arte) Le mystère de la disparition des abeilles (2010)

(Arte) Le mystère de la disparition des abeilles (2010)

(Arte) Le mystère de la disparition des abeilles (2010)

(Arte) Le mystère de la disparition des abeilles (2010)

No Pass ;)