(Arte) Mystères D'archives - 1954, Marilyn Monroe en Corée (2009)

Posted By: Morocco
(Arte) Mystères D'archives - 1954, Marilyn Monroe en Corée (2009)

(Arte) Mystères D'archives - 1954, Marilyn Monroe en Corée (2009)
TNT-Rip by Clo2 | French | 26min | 640 x 360 | 25.000 fps | Avi | MPEG-4 XviD @ 898 Kbps | MP3 @ 112 Kbps | 191 MB
Genre : Documentaire

Le 15 février 1954, Marilyn interrompt brutalement son voyage de noces au Japon avec le célèbre joueur de baseball Joe Di Maggio pour aller chanter en Corée auprès des GIs.

Format : AVI
Format/Info : Audio Video Interleave
File size : 191 MiB
Duration : 26mn 11s
Overall bit rate : 1 020 Kbps
Writing application : VirtualDubMod 1.5.10.3 Fr | www.virtualdub-fr.org || (build 2550/release)
Writing library : VirtualDubMod build 2550/release

Video
ID : 0
Format : MPEG-4 Visual
Format profile : Advanced Simple@L5
Format settings, BVOP : 2
Format settings, QPel : No
Format settings, GMC : No warppoints
Format settings, Matrix : Default (H.263)
Muxing mode : Packed bitstream
Codec ID : XVID
Codec ID/Hint : XviD
Duration : 26mn 11s
Bit rate : 898 Kbps
Width : 640 pixels
Height : 360 pixels
Display aspect ratio : 16:9
Frame rate : 25.000 fps
Color space : YUV
Chroma subsampling : 4:2:0
Bit depth : 8 bits
Scan type : Progressive
Compression mode : Lossy
Bits/(Pixel*Frame) : 0.156
Stream size : 168 MiB (88%)
Writing library : XviD 1.2.1 (UTC 2008-12-04)

Audio
ID : 1
Format : MPEG Audio
Format version : Version 1
Format profile : Layer 3
Mode : Joint stereo
Mode extension : MS Stereo
Codec ID : 55
Codec ID/Hint : MP3
Duration : 26mn 11s
Bit rate mode : Constant
Bit rate : 112 Kbps
Channel(s) : 2 channels
Sampling rate : 48.0 KHz
Compression mode : Lossy
Stream size : 21.0 MiB (11%)
Alignment : Aligned on interleaves
Interleave, duration : 40 ms (1.00 video frame)
Interleave, preload duration : 504 ms


(Arte) Mystères D'archives - 1954, Marilyn Monroe en Corée (2009)

(Arte) Mystères D'archives - 1954, Marilyn Monroe en Corée (2009)

(Arte) Mystères D'archives - 1954, Marilyn Monroe en Corée (2009)

~ Liens interchangeables ~



No Pass ;)

Un merci ?

D'autres "Mystères d'Archives" ? >> Listing des documentaires