(Arte) Philosophie : Attente (2012)

Posted By: Morocco
(Arte) Philosophie : Attente (2012)

(Arte) Philosophie : Attente (2012)
TNT-Rip by Clo2 | French | 26min | 640 x 368 | 25.000 fps | Avi | MPEG-4 XviD @ 895 Kbps | MP3 @ 112 Kbps | 191 MB
Genre : Documentaire

"Veuillez patienter…" A-t-on seulement le temps d'attendre ? Et quelle différence entre n'avoir plus rien à attendre et disparaître ? Avec le philosophe Nicolas Grimaldi, Raphaël Enthoven explore nos propensions à l'attente, dans l'espoir d'être plus tard ce qu'on voudrait être ici et maintenant.

Invité : Nicolas Grimaldi

Professeur émérite à l'Université Paris IV-Sorbonne dans laquelle il a occupé successivement les chaires d'histoire de la philosophie moderne et de métaphysique, Nicolas Grimaldi est auteur de nombreux essais philosophiques.

Ses sujets de prédilections, qu'il aborde souvent de façon non systématique dans des réflexions libres comprennent des notions aussi diverses que l'imaginaire, le temps, le désir, le jeu, l'attente et le moi etc. S'intéressant à différentes branches de la philosophie (métaphysique, éthique, esthétique), il est spécialiste de Descartes et se réfère dans ses textes à de nombreuses œuvres philosophiques (des présocratiques aux existentialistes) et littéraires (Kafka, Baudelaire, Simenon, Tolstoï, etc.).

Il enseigne dans les années 1950 au lycée Molière (Paris).

Format : AVI
Format/Info : Audio Video Interleave
File size : 191 MiB
Duration : 26mn 14s
Overall bit rate : 1 017 Kbps
Writing application : VirtualDubMod 1.5.10.3 Fr | www.virtualdub-fr.org || (build 2550/release)
Writing library : VirtualDubMod build 2550/release

Video
ID : 0
Format : MPEG-4 Visual
Format profile : Advanced Simple@L5
Format settings, BVOP : 2
Format settings, QPel : No
Format settings, GMC : No warppoints
Format settings, Matrix : Default (MPEG)
Muxing mode : Packed bitstream
Codec ID : XVID
Codec ID/Hint : XviD
Duration : 26mn 14s
Bit rate : 895 Kbps
Width : 640 pixels
Height : 368 pixels
Display aspect ratio : 1.739
Frame rate : 25.000 fps
Color space : YUV
Chroma subsampling : 4:2:0
Bit depth : 8 bits
Scan type : Progressive
Compression mode : Lossy
Bits/(Pixel*Frame) : 0.152
Stream size : 168 MiB (88%)
Writing library : XviD 64

Audio
ID : 1
Format : MPEG Audio
Format version : Version 1
Format profile : Layer 3
Mode : Joint stereo
Mode extension : MS Stereo
Codec ID : 55
Codec ID/Hint : MP3
Duration : 26mn 14s
Bit rate mode : Constant
Bit rate : 112 Kbps
Channel(s) : 2 channels
Sampling rate : 48.0 KHz
Compression mode : Lossy
Stream size : 21.0 MiB (11%)
Alignment : Aligned on interleaves
Interleave, duration : 40 ms (1.00 video frame)
Interleave, preload duration : 504 ms
Writing library : LAME3.98r
Encoding settings : -m j -V 4 -q 3 -lowpass 15.6 -b 112


(Arte) Philosophie : Attente (2012)

(Arte) Philosophie : Attente (2012)

No Pass ;)

Un merci ?
~ Lien ~

Uploaded
ou
Uptobox