(Arte) Le plastique - Menace sur les océans (2013)

Posted By: Morocco
(Arte) Le plastique - Menace sur les océans (2013)

(Arte) Le plastique - Menace sur les océans (2013)
TNT-Rip by Clo2 | French | 53min | 640 x 368 | 25.000 fps | MP4 | AVC High@L4.0 @ 850 Kbps | MPEG Audio @ 100 Kbps | 360 MB
Genre : Documentaire

Quelles sont les conséquences de la pollution des océans par les matières plastiques ? Un état des lieux des connaissances scientifiques actuelles.

Chaque année, l’humanité déverse six millions de tonnes de plastique dans les mers. L’océanographe et militant écologiste Markus Eriksen sillonne le Pacifique Sud, des côtes chiliennes à l’île de Pâques, pour repérer un des tourbillons océaniques où se concentrent ces plastiques. Deux "îles" de déchets non biodégradables ont déjà été découvertes, l'une dans le Pacifique Nord, l'autre dans l'Atlantique Nord, et trois restent à localiser dans l’hémisphère Sud. Avec quel impact ?

Multiples pollutions

Chimistes, océanographes et ornithologues mettent en lumière les multiples facettes du phénomène, à commencer par les mammifères étranglés et les oiseaux étouffés. Mais les hormones de synthèse véhiculées par les débris, les substances polluantes qui s’y concentrent ou les microplastiques présents dans nos produits de consommation s’avèrent plus toxiques encore pour la chaîne alimentaire. Sans oublier que ces objets transportent sur des milliers de kilomètres des micro-organismes qui bouleversent les écosystèmes. Une pollution massive et mondiale.

Format : MPEG-4
Format profile : Base Media / Version 2
Codec ID : mp42
File size : 360 MiB
Duration : 52mn 43s
Overall bit rate mode : Variable
Overall bit rate : 956 Kbps
Encoded date : UTC 2013-01-10 23:26:48
Tagged date : UTC 2013-01-10 23:26:51

Video
ID : 1
Format : AVC
Format/Info : Advanced Video Codec
Format profile : High@L4.0
Format settings, CABAC : Yes
Format settings, ReFrames : 4 frames
Codec ID : avc1
Codec ID/Info : Advanced Video Coding
Duration : 52mn 43s
Bit rate mode : Variable
Bit rate : 850 Kbps
Width : 640 pixels
Height : 368 pixels
Display aspect ratio : 1.739
Frame rate mode : Variable
Frame rate : 25.000 fps
Minimum frame rate : 24.563 fps
Maximum frame rate : 100.000 fps
Color space : YUV
Chroma subsampling : 4:2:0
Bit depth : 8 bits
Scan type : Progressive
Bits/(Pixel*Frame) : 0.144
Stream size : 321 MiB (89%)
Encoded date : UTC 2013-01-10 23:26:48
Tagged date : UTC 2013-01-10 23:26:51

Audio
ID : 2
Format : MPEG Audio
Format version : Version 1
Format profile : Layer 3
Mode : Joint stereo
Mode extension : MS Stereo
Codec ID : 69
Duration : 52mn 43s
Bit rate mode : Variable
Bit rate : 100 Kbps
Channel(s) : 2 channels
Sampling rate : 48.0 KHz
Compression mode : Lossy
Stream size : 37.8 MiB (10%)
Encoded date : UTC 2013-01-10 23:26:48
Tagged date : UTC 2013-01-10 23:26:51


(Arte) Le plastique - Menace sur les océans (2013)

(Arte) Le plastique - Menace sur les océans (2013)

(Arte) Le plastique - Menace sur les océans (2013)

(Arte) Le plastique - Menace sur les océans (2013)

No Pass ;)