Tags
Language
Tags

Race Against Time: The CIA and 9/11 (2021)

Posted By: notbanned
1080p (FullHD) / WEBRip IMDb
Race Against Time: The CIA and 9/11 (2021)

Race Against Time: The CIA and 9/11 (2021)
WEBRip 720p | MKV | 1280x720 | AVC@4491 Kbps | English EAC3@640 Kbps | 6 channels | 1 h 28 min | 3.24 GiB
WEBRip 1080p | MKV | 1920x1080 | AVC@8677 Kbps | English EAC3@640 Kbps | 6 channels | 1 h 28 min | 5.88 GiB
Genre: Documentary

Follows former top officials and elite operatives inside the CIA as they share accounts of their efforts to stop Osama bin Laden and the catastrophic attack they knew was coming.

General
Unique ID : 304905826643223383374560904966699347145 (0xE562B9E69B60C8C64B449CBD8155ECC9)
Complete name : race.against.time.the.cia.and.9.11.2021.720p.mkv
Format : Matroska
Format version : Version 4 / Version 2
File size : 3.24 GiB
Duration : 1 h 28 min
Overall bit rate : 5 235 kb/s

Video
ID : 1
Format : AVC
Format/Info : Advanced Video Codec
Format profile : High@L3.1
Format settings, CABAC : Yes
Format settings, ReFrames : 4 frames
Codec ID : V_MPEG4/ISO/AVC
Duration : 1 h 28 min
Bit rate mode : Constant
Bit rate : 4 491 kb/s
Nominal bit rate : 6 000 kb/s
Width : 1 280 pixels
Height : 720 pixels
Display aspect ratio : 16:9
Frame rate mode : Constant
Frame rate : 30.000 FPS
Color space : YUV
Chroma subsampling : 4:2:0
Bit depth : 8 bits
Scan type : Progressive
Bits/(Pixel*Frame) : 0.162
Stream size : 2.78 GiB (86%)
Default : Yes
Forced : No
Color range : Limited
Color primaries : BT.709
Transfer characteristics : BT.709
Matrix coefficients : BT.709

Audio
ID : 2
Format : E-AC-3
Format/Info : Enhanced Audio Coding 3
Format settings, Endianness : Big
Codec ID : A_EAC3
Duration : 1 h 28 min
Bit rate mode : Constant
Bit rate : 640 kb/s
Channel(s) : 6 channels
Channel positions : Front: L C R, Side: L R, LFE
Sampling rate : 48.0 kHz
Frame rate : 187.500 FPS (256 spf)
Compression mode : Lossy
Stream size : 406 MiB (12%)
Language : English
Service kind : Complete Main
Default : Yes
Forced : No

Text
ID : 3
Format : UTF-8
Codec ID : S_TEXT/UTF8
Codec ID/Info : UTF-8 Plain Text
Title : English
Language : English
Default : No
Forced : No


General
Unique ID : 313315130470190994234936283689128504714 (0xEBB64C9713105F5A7682EC9154272D8A)
Complete name : race.against.time.the.cia.and.9.11.2021.1080p.mkv
Format : Matroska
Format version : Version 4 / Version 2
File size : 5.88 GiB
Duration : 1 h 28 min
Overall bit rate : 9 507 kb/s

Video
ID : 1
Format : AVC
Format/Info : Advanced Video Codec
Format profile : High@L4
Format settings, CABAC : Yes
Format settings, ReFrames : 4 frames
Codec ID : V_MPEG4/ISO/AVC
Duration : 1 h 28 min
Bit rate mode : Constant
Bit rate : 8 677 kb/s
Nominal bit rate : 10 000 kb/s
Width : 1 920 pixels
Height : 1 080 pixels
Display aspect ratio : 16:9
Frame rate mode : Constant
Frame rate : 30.000 FPS
Color space : YUV
Chroma subsampling : 4:2:0
Bit depth : 8 bits
Scan type : Progressive
Bits/(Pixel*Frame) : 0.139
Stream size : 5.37 GiB (91%)
Default : Yes
Forced : No
Color range : Limited
Color primaries : BT.709
Transfer characteristics : BT.709
Matrix coefficients : BT.709

Audio
ID : 2
Format : E-AC-3
Format/Info : Enhanced Audio Coding 3
Format settings, Endianness : Big
Codec ID : A_EAC3
Duration : 1 h 28 min
Bit rate mode : Constant
Bit rate : 640 kb/s
Channel(s) : 6 channels
Channel positions : Front: L C R, Side: L R, LFE
Sampling rate : 48.0 kHz
Frame rate : 187.500 FPS (256 spf)
Compression mode : Lossy
Stream size : 406 MiB (7%)
Language : English
Service kind : Complete Main
Default : Yes
Forced : No

Text
ID : 3
Format : UTF-8
Codec ID : S_TEXT/UTF8
Codec ID/Info : UTF-8 Plain Text
Title : English
Language : English
Default : No
Forced : No


Screenshots 720p:

Race Against Time: The CIA and 9/11 (2021)

Race Against Time: The CIA and 9/11 (2021)

Race Against Time: The CIA and 9/11 (2021)

Race Against Time: The CIA and 9/11 (2021)

Screenshots 1080p:

Race Against Time: The CIA and 9/11 (2021)

Race Against Time: The CIA and 9/11 (2021)

Race Against Time: The CIA and 9/11 (2021)

Race Against Time: The CIA and 9/11 (2021)