(Fr3) Des Racines et des Ailes : La France au fil de l'eau (2011)

Posted By: Morocco
(Fr3) Des Racines et des Ailes : La France au fil de l'eau (2011)

(Fr3) Des Racines et des Ailes : La France au fil de l'eau (2011)
TNT-Rip by Clo2 | French | 1h45min | 640 x 368 | 25.000 fps | Avi | MPEG-4 XviD @ 894 Kbps | MP3 @ 112 Kbps | 766 MB
Genre : Documentaire

Des sources du Tarn aux étangs de la Brenne, en passant par les canaux du Nord de la France, c’est un voyage et un visage inédits de notre pays que nous offrent ces nouveaux amoureux du patrimoine !

Sur sa péniche, un couple sillonne la France en parcourant ses canaux pour livrer des céréales et des marchandises. A bord, des visiteurs viennent partager la passion et l’expérience des mariniers, et profiter des chambres d’hôtes aménagées dans le bateau…

Dans les Gorges du Tarn, les habitants de la région se battent pour préserver les petits villages isolés. Des viticulteurs, originaires du Bordelais, relèvent le défi de replanter la vigne qui couvrait autrefois les coteaux. Au château de la Caze, le chef cuisinier fait découvrir à une jeune stagiaire venue de l’île Maurice les secrets culinaires de la région, et notamment ceux de la truffe…

En Brenne, aux confins du Berry, de la Touraine et du Poitou, les professionnels du Parc naturel s’attachent à protéger cette région à l’écosystème fragile. Depuis quelques années, ce petit paradis méconnu, surnommé « le pays des mille étangs », est en effet menacé par deux espèces particulièrement envahissantes : une plante, la jussie, et l’écrevisse rouge de Louisiane ! Nous suivons ces défenseurs de la nature dans leurs recherches pour endiguer ces deux fléaux…

Nous partons également à la rencontre de deux photographes amoureux de la Brenne : à bord de leur ULM, eux aussi témoignent de cette beauté qu’ils immortalisent avec leurs clichés !

Format : AVI
Format/Info : Audio Video Interleave
File size : 766 MiB
Duration : 1h 45mn
Overall bit rate : 1 016 Kbps
Writing application : VirtualDubMod 1.5.10.3 Fr | www.virtualdub-fr.org || (build 2550/release)
Writing library : VirtualDubMod build 2550/release

Video
ID : 0
Format : MPEG-4 Visual
Format profile : Advanced Simple@L5
Format settings, BVOP : 2
Format settings, QPel : No
Format settings, GMC : No warppoints
Format settings, Matrix : Default (MPEG)
Muxing mode : Packed bitstream
Codec ID : XVID
Codec ID/Hint : XviD
Duration : 1h 45mn
Bit rate : 894 Kbps
Width : 640 pixels
Height : 368 pixels
Display aspect ratio : 16:9
Frame rate : 25.000 fps
Color space : YUV
Chroma subsampling : 4:2:0
Bit depth : 8 bits
Scan type : Progressive
Compression mode : Lossy
Bits/(Pixel*Frame) : 0.152
Stream size : 674 MiB (88%)
Writing library : XviD 1.2.1 (UTC 2008-12-04)

Audio
ID : 1
Format : MPEG Audio
Format version : Version 1
Format profile : Layer 3
Mode : Joint stereo
Mode extension : MS Stereo
Codec ID : 55
Codec ID/Hint : MP3
Duration : 1h 45mn
Bit rate mode : Constant
Bit rate : 112 Kbps
Channel(s) : 2 channels
Sampling rate : 48.0 KHz
Compression mode : Lossy
Stream size : 84.5 MiB (11%)
Alignment : Aligned on interleaves
Interleave, duration : 40 ms (1.00 video frame)
Interleave, preload duration : 504 ms
Writing library : LAME3.98r
Encoding settings : -m j -V 4 -q 3 -lowpass 15.6 -b 112


(Fr3) Des Racines et des Ailes : La France au fil de l'eau (2011)

(Fr3) Des Racines et des Ailes : La France au fil de l'eau (2011)

(Fr3) Des Racines et des Ailes : La France au fil de l'eau (2011)

(Fr3) Des Racines et des Ailes : La France au fil de l'eau (2011)

(Fr3) Des Racines et des Ailes : La France au fil de l'eau (2011)

~ Liens interchangeables ~



No Pass ;)


Un merci ?

No Mirrors !