(Fr3) Des Racines et des Ailes : Passion patrimoine, du Périgord au Cotentin (2010)

Posted By: Morocco
(Fr3) Des Racines et des Ailes : Passion patrimoine, du Périgord au Cotentin (2010)

(Fr3) Des Racines et des Ailes : Passion patrimoine, du Périgord au Cotentin (2010)
TNT-Rip by Clo2 | French | 1h44min | 640 x 368 | 25.000 fps | Avi | MPEG-4 XviD @ 895 Kbps | MP3 @ 112 Kbps | 757 MB
Genre : Documentaire

Au cœur du Périgord et tout au long du littoral du Cotentin, des amoureux du patrimoine se battent avec passion pour protéger et faire revivre les trésors de leurs régions.

Près de Sarlat, dans le Périgord Noir, Angélique de Labarre entretient la mémoire de Joséphine Baker. Arrivée en 1947 aux Milandes, un magnifique château du 16e siècle, la vedette du music-hall y avait installé sa "tribu arc-en-ciel", les douze enfants qu’elle avait adoptés. Grâce à l’énergie de la nouvelle maîtresse des lieux, le monument est un vibrant hommage à celle qui fit beaucoup pour faire connaître sa région d’adoption.

A Commarque, un village du Moyen-âge est réapparu grâce à l’obstination de son propriétaire. Alors que le site était encore enfoui sous une colline il y a trente ans, les visiteurs peuvent aujourd’hui découvrir un château fort, des rues médiévales et d’étonnantes habitations troglodytes.
Dans le Périgord Pourpre, à Monbazillac, les viticulteurs ont eu une idée originale pour sauver la demeure seigneuriale de la Renaissance qui domine leurs vignes. Regroupés en coopérative, ils partagent leur temps entre la fabrication du précieux vin au goût sucré, issu de leur vignoble, et la restauration de leur monument historique.

Marquant la fin de la presqu’île du Cotentin, La Hague réserve des surprises. Souvent décriée pour son usine nucléaire, cette région aux lumières changeantes abrite des villages anciens aux toits recouverts de schiste bleu, surplombant des criques qui furent longtemps repaires de naufrageurs. François Roquet a créé une association pour protéger l’architecture unique de cette "petite Irlande".

A quelques kilomètres au large, sur l’archipel inhabité de Saint-Marcouf, des amis dédient leur temps libre à sauver le fort militaire construit sur ordre de Napoléon. Rémi Régnault fait partager sa passion pour les marais du Cotentin en plein coeur d’un Parc naturel. Ancien agriculteur, il n’aime rien tant que de sillonner, dans les brumes du petit jour, les canaux de cette vaste étendue entre terre et mer. Un écosystème unique où nichent de nouveau les cigognes.

Format : AVI
Format/Info : Audio Video Interleave
File size : 757 MiB
Duration : 1h 44mn
Overall bit rate : 1 017 Kbps
Writing library : VirtualDub build 32839/release

Video
ID : 0
Format : MPEG-4 Visual
Format profile : Advanced Simple@L5
Format settings, BVOP : 2
Format settings, QPel : No
Format settings, GMC : No warppoints
Format settings, Matrix : Default (MPEG)
Muxing mode : Packed bitstream
Codec ID : XVID
Codec ID/Hint : XviD
Duration : 1h 44mn
Bit rate : 895 Kbps
Width : 640 pixels
Height : 368 pixels
Display aspect ratio : 16:9
Frame rate : 25.000 fps
Color space : YUV
Chroma subsampling : 4:2:0
Bit depth : 8 bits
Scan type : Progressive
Compression mode : Lossy
Bits/(Pixel*Frame) : 0.152
Stream size : 666 MiB (88%)
Writing library : XviD 1.2.1 (UTC 2008-12-04)

Audio
ID : 1
Format : MPEG Audio
Format version : Version 1
Format profile : Layer 3
Mode : Joint stereo
Mode extension : MS Stereo
Codec ID : 55
Codec ID/Hint : MP3
Duration : 1h 44mn
Bit rate mode : Constant
Bit rate : 112 Kbps
Channel(s) : 2 channels
Sampling rate : 48.0 KHz
Compression mode : Lossy
Stream size : 83.3 MiB (11%)
Alignment : Split accross interleaves
Interleave, duration : 40 ms (1.00 video frame)
Interleave, preload duration : 500 ms
Writing library : LAME3.98r
Encoding settings : -m j -V 4 -q 3 -lowpass 15.6 -b 112


(Fr3) Des Racines et des Ailes : Passion patrimoine, du Périgord au Cotentin (2010)

(Fr3) Des Racines et des Ailes : Passion patrimoine, du Périgord au Cotentin (2010)

(Fr3) Des Racines et des Ailes : Passion patrimoine, du Périgord au Cotentin (2010)

(Fr3) Des Racines et des Ailes : Passion patrimoine, du Périgord au Cotentin (2010)

(Fr3) Des Racines et des Ailes : Passion patrimoine, du Périgord au Cotentin (2010)

(Fr3) Des Racines et des Ailes : Passion patrimoine, du Périgord au Cotentin (2010)

~ Liens interchangeables



No Pass ;)

Un merci ?

D'autres "Des Racines et des Ailes" ?>> Listing des documentaires ?