(Fr3) Des racines et des ailes : Passion patrimoine, terre de Gascogne (2013)

Posted By: Morocco
(Fr3) Des racines et des ailes : Passion patrimoine, terre de Gascogne (2013)

(Fr3) Des racines et des ailes : Passion patrimoine, terre de Gascogne (2013)
TNT-Rip by Clo2 | French | 1h53min | 720 x 400 | 25.000 fps | MP4 | AVC High@L4.0 @ 900 Kbps | MPEG Audio @ 112 Kbps | 813 MB
Genre : Documentaire

Entre Aquitaine et Pyrénées, la Gascogne est une terre de châteaux forts et de vignobles. C’est aussi une région au patrimoine naturel exceptionnel ! Le long du littoral océanique, l’immense dune de sable des Landes de Gascogne est le domaine de plantes endémiques et d’animaux rares.

En plein cœur du Gers, non loin du château où est né d’Artagnan, le plus célèbre des Gascons, se trouve le village de Mas-d’Auvignon. C’est ici que Walter et Pamela Philippe restaurent le château médiéval. Ce couple hollandais a été adopté par ce village animé par une vie associative très riche. C’est ainsi qu’une équipe de volontaires maintient en vie le café, organise des travaux de sauvegarde de l’église et vient prêter main forte aux nouveaux propriétaires pour la restauration de la forteresse.

Nous mettons ensuite le cap sur le lac de Biscarrosse, l’un des plus grands plans d’eau douce de France. Il fut l’un des berceaux de l’histoire de l’aviation française. C’est ici que l’avionneur Latécoère assemblait et faisait voler ses hydravions dans les années trente. Jean Meyer, un passionné, nous emmène à bord de son appareil, dans le sillage de Mermoz et Saint-Exupéry.

Gilles Granereau, lui, est chargé de mission environnement à l’Office National des Forêts. Il protège la dune littorale soigneusement fixée par l’homme au XIXe siècle. Cet amoureux de la nature met tout en œuvre pour sauvegarder les plantes fragiles de cette dune qui longe la côte sur une centaine de kilomètres. Avec l’association « Cistude Nature », il traque et étudie le lézard ocellé, le plus gros lézard d’Europe qui a trouvé refuge ici, au milieu d’un écosystème riche mais fragile…

A l’arrière de la dune, où s’épanouit le pin maritime, l’association « Le Liège Gascon » relance la collecte de l’écorce du chêne liège landais. Nous suivons Henri Garcia-Cuenca en forêt pour la levée du liège, puis dans son atelier de Soustons où il continue à fabriquer les bouchons exactement comme il y a un siècle…

Grâce à l’historien Jacques Lapart, nous découvrons aussi les plus belles richesses du patrimoine gascon : le Castelnau de Lavardens et ses colonnes en trompes. Sur les chemins de Saint-Jacques-de-Compostelle, nous allons à Auch, la capitale historique de la Gascogne, avec son palais archiépiscopal attenant à l’impressionnante cathédrale Sainte-Marie, elle-même inscrite au patrimoine mondial de l’UNESCO.

La Gascogne est la terre de l’armagnac. Jean et Alexandre Ladevèze sont des producteurs qui ont à cœur de faire vivre des traditions ancestrales. Ils remettent en culture des cépages oubliés. Pour fabriquer leur eau de vie d’exception, ils font appel au dernier tonnelier artisanal de l’armagnac, et distillent leur vin grâce à un alambic ambulant installé dans leur chai.

Nous partons enfin à la rencontre de Stéphane Iriberri, berger à Aillas, en Gironde. Depuis dix ans, il fait revivre les grandes transhumances des bergers des Pyrénées. Pendant trois semaines, en septembre, il traverse toute la Gascogne à pied avec ses 500 brebis pour rejoindre sa bergerie. Cette transhumance séduit toutes les communes traversées. Au point que leurs habitants se mobilisent pour aider Stéphane dans son périlleux périple long de 300 kilomètres…

Format : MPEG-4
Format profile : Base Media / Version 2
Codec ID : mp42
File size : 813 MiB
Duration : 1h 53mn
Overall bit rate mode : Variable
Overall bit rate : 1 002 Kbps
Encoded date : UTC 2013-01-16 23:01:26
Tagged date : UTC 2013-01-16 23:01:45

Video
ID : 1
Format : AVC
Format/Info : Advanced Video Codec
Format profile : High@L4.0
Format settings, CABAC : Yes
Format settings, ReFrames : 4 frames
Codec ID : avc1
Codec ID/Info : Advanced Video Coding
Duration : 1h 53mn
Bit rate mode : Variable
Bit rate : 900 Kbps
Width : 720 pixels
Height : 400 pixels
Display aspect ratio : 16:9
Frame rate mode : Variable
Frame rate : 25.000 fps
Minimum frame rate : 24.410 fps
Maximum frame rate : 100.000 fps
Color space : YUV
Chroma subsampling : 4:2:0
Bit depth : 8 bits
Scan type : Progressive
Bits/(Pixel*Frame) : 0.125
Stream size : 730 MiB (90%)
Writing library : x264 core 129 r2230 1cffe9f
Encoding settings : cabac=1 / ref=3 / deblock=1:0:0 / analyse=0x3:0x113 / me=hex / subme=7 / psy=1 / psy_rd=1.00:0.00 / mixed_ref=1 / me_range=16 / chroma_me=1 / trellis=1 / 8x8dct=1 / cqm=0 / deadzone=21,11 / fast_pskip=1 / chroma_qp_offset=-2 / threads=12 / lookahead_threads=2 / sliced_threads=0 / nr=0 / decimate=1 / interlaced=0 / bluray_compat=0 / constrained_intra=0 / bframes=3 / b_pyramid=2 / b_adapt=1 / b_bias=0 / direct=1 / weightb=1 / open_gop=0 / weightp=2 / keyint=250 / keyint_min=25 / scenecut=40 / intra_refresh=0 / rc_lookahead=40 / rc=2pass / mbtree=1 / bitrate=900 / ratetol=1.0 / qcomp=0.60 / qpmin=0 / qpmax=69 / qpstep=4 / cplxblur=20.0 / qblur=0.5 / ip_ratio=1.40 / aq=1:1.00
Encoded date : UTC 2013-01-16 23:01:26
Tagged date : UTC 2013-01-16 23:01:45

Audio
ID : 2
Format : MPEG Audio
Format version : Version 1
Format profile : Layer 3
Mode : Joint stereo
Mode extension : MS Stereo
Codec ID : 69
Duration : 1h 53mn
Bit rate mode : Variable
Bit rate : 96.4 Kbps
Nominal bit rate : 112 Kbps
Channel(s) : 2 channels
Sampling rate : 48.0 KHz
Compression mode : Lossy
Stream size : 78.2 MiB (10%)
Writing library : LAME3.98r
Encoding settings : -m j -V 4 -q 2 -lowpass 15.6 –abr 112
Encoded date : UTC 2013-01-16 23:01:26
Tagged date : UTC 2013-01-16 23:01:45


(Fr3) Des racines et des ailes : Passion patrimoine, terre de Gascogne (2013)

(Fr3) Des racines et des ailes : Passion patrimoine, terre de Gascogne (2013)

(Fr3) Des racines et des ailes : Passion patrimoine, terre de Gascogne (2013)

(Fr3) Des racines et des ailes : Passion patrimoine, terre de Gascogne (2013)

(Fr3) Des racines et des ailes : Passion patrimoine, terre de Gascogne (2013)

(Fr3) Des racines et des ailes : Passion patrimoine, terre de Gascogne (2013)

(Fr3) Des racines et des ailes : Passion patrimoine, terre de Gascogne (2013)

No Pass ;)

Un merci ?