Rain Man (1988)

Posted By: a_l_chemist
Rain Man (1988)

Rain Man (1988)
BDRip | AVI | XviD | 720x384, 23.976 fps, 1362 kbps | 02:13:50 | 1,78 GB
English: AC3, 6ch, 448 kbps | Subs: English (srt)
Genre: Drama

Rain Man is a 1988 American drama film directed by Barry Levinson and written by Barry Morrow and Ronald Bass. It tells the story of an abrasive and selfish yuppie, Charlie Babbitt, who discovers that his estranged father has died and bequeathed all of his multimillion-dollar estate to his other son, Raymond, an autistic savant of whose existence Charlie was unaware. The film stars Dustin Hoffman as Raymond Babbitt, Tom Cruise as Charlie Babbitt and Valeria Golino as Charlie's girlfriend, Susanna. Morrow created the character of Raymond after meeting Kim Peek, a real-life savant; his characterization was based on both Peek and Bill Sackter, a good friend of Morrow who was the subject of Bill, an earlier film that Morrow wrote.
The film won four Oscars at the 61st Academy Awards (March 1989), including Best Picture, Best Original Screenplay, Best Director, and Best Actor in a Leading Role for Hoffman.

Rain Man (1988)

Plot: Charlie Babbitt (Tom Cruise), a narcissistic Los Angeles car dealer in his mid-twenties, is in the middle of importing four grey market Lamborghinis. The deal is being threatened by the EPA, and if Charlie cannot meet its requirements he will lose a significant amount of money. After some quick subterfuge with an employee, Charlie leaves for a weekend trip to Palm Springs with his girlfriend, Susanna (Valeria Golino). Charlie's trip is cancelled by news that his estranged father, Sanford Babbitt, has died. Charlie travels to Cincinnati, Ohio, to settle the estate, where he learns an undisclosed trustee is inheriting $3 million on behalf of an unnamed beneficiary, while all he is to receive is a classic Buick Roadmaster convertible and several prize rose bushes. Eventually he learns the money is being directed to a mental institution, which is the home of his autistic brother, Raymond (Dustin Hoffman), of whose existence Charlie was previously unaware.

Rain Man (1988)

This leads Charlie to ask the question that permeates the movie: "Why didn't somebody tell me I had a brother?" Because Raymond has autism, he also has superb recall, albeit usually with little understanding of the subject matter, but has extreme skills in mathematics (in those scenes he merely remembers the answers, and with no understanding of currency). He is said to be a savant by some doctors. He is frightened by change and adheres to strict routines (for example, his continual repetition of the "Who's on First?" sketch). Except when he is in distress, he shows little emotional expression and avoids eye contact. Numbed by learning that he has a brother and determined to get what he believes is his fair share of the Babbitt estate, Charlie takes Raymond on what becomes a cross-country car trip (due to Raymond's fear of flying) back to Los Angeles to meet with his attorneys.
–from wikipedia
…..IMDb
Rain Man (1988)

Rain Man (1988)

Rain Man (1988)

Rain Man (1988)

Rain Man (1988)

General
File name : Rain Man.avi
Format : AVI
Format/Info : Audio Video Interleave
File size : 1.70 GiB
Duration : 2h 13mn
Overall bit rate : 1 819 Kbps
Movie name : Rain Man
Writing application : VirtualDubMod 1.5.10.2 (build 2540/release)
Writing library : VirtualDubMod build 2540/release

Video
ID : 0
Format : MPEG-4 Visual
Format profile : Advanced Simple@L5
Format settings, BVOP : 2
Format settings, QPel : No
Format settings, GMC : No warppoints
Format settings, Matrix : Custom
Codec ID : XVID
Codec ID/Hint : XviD
Duration : 2h 13mn
Bit rate : 1 362 Kbps
Width : 720 pixels
Height : 384 pixels
Display aspect ratio : 1.875
Frame rate : 23.976 fps
Color space : YUV
Chroma subsampling : 4:2:0
Bit depth : 8 bits
Scan type : Progressive
Compression mode : Lossy
Bits/(Pixel*Frame) : 0.205
Stream size : 1.27 GiB (75%)
Writing library : XviD 1.2.1 (UTC 2008-12-04)

Audio
ID : 1
Format : AC-3
Format/Info : Audio Coding 3
Mode extension : CM (complete main)
Codec ID : 2000
Duration : 2h 13mn
Bit rate mode : Constant
Bit rate : 448 Kbps
Channel(s) : 6 channels
Channel positions : Front: L C R, Side: L R, LFE
Sampling rate : 48.0 KHz
Bit depth : 16 bits
Compression mode : Lossy
Stream size : 429 MiB (25%)
Alignment : Split accross interleaves
Interleave, duration : 42 ms (1.00 video frame)
Interleave, preload duration : 500 ms
Title : English

Download:

Uploaded