Subcategories

Silicon Valley S02 (2015)

Posted By: a4s
Silicon Valley S02 (2015)

Silicon Valley S02 (2015)
HDRip | AVI / XviD@1500 kb/s | 720x400 | 10x30mn | 10x350 MB
Audio: English: AC3, 192 kb/s (2 ch)
WEB-DL 720p | MKV / AVC@4000 kb/s | 1280x718 | 10x30mn | 10x1.00 GB
Audio: English: AC3, 384 kb/s (6 ch) | Subtiltes: English (full)
Genre: Comedy

In the high-tech gold rush of modern Silicon Valley, the people most qualified to succeed are the least capable of handling success. A comedy partially inspired by Mike Judge's own experiences as a Silicon Valley engineer in the late 1980s.

HDRip

General
Complete name : Silicon.Valley.S02E01.WEB-DLRip.DD2.0.XviD.avi
Format : AVI
Format/Info : Audio Video Interleave
File size : 359 MiB
Duration : 29mn 32s
Overall bit rate : 1 701 Kbps
Writing application : VirtualDubMod 1.5.10.2 (build 2542/release)
Writing library : VirtualDubMod build 2542/release

Video
ID : 0
Format : MPEG-4 Visual
Format profile : Advanced Simple@L5
Format settings, BVOP : 2
Format settings, QPel : No
Format settings, GMC : No warppoints
Format settings, Matrix : Default (MPEG)
Codec ID : XVID
Codec ID/Hint : XviD
Duration : 29mn 32s
Bit rate : 1 500 Kbps
Width : 720 pixels
Height : 400 pixels
Display aspect ratio : 16:9
Frame rate : 23.976 fps
Color space : YUV
Chroma subsampling : 4:2:0
Bit depth : 8 bits
Scan type : Progressive
Compression mode : Lossy
Bits/(Pixel*Frame) : 0.217
Stream size : 317 MiB (88%)
Writing library : XviD 67

Audio
ID : 1
Format : AC-3
Format/Info : Audio Coding 3
Mode extension : CM (complete main)
Format settings, Endianness : Big
Codec ID : 2000
Duration : 29mn 32s
Bit rate mode : Constant
Bit rate : 192 Kbps
Channel(s) : 2 channels
Channel positions : Front: L R
Sampling rate : 48.0 KHz
Compression mode : Lossy
Stream size : 40.6 MiB (11%)
Alignment : Split accross interleaves
Interleave, duration : 42 ms (1.00 video frame)
Interleave, preload duration : 500 ms



Silicon Valley S02 (2015)

Silicon Valley S02 (2015)

Silicon Valley S02 (2015)

Silicon Valley S02 (2015)


WEB-DL 720p

General
Unique ID : 249010013063694190808564402059142037055 (0xBB5595850847FBF9A7BF3D9B1208FE3F)
Complete name : Silicon.Valley.S02E01.720p.WEB-DL.DD5.1.H.264.mkv
Format : Matroska
Format version : Version 4 / Version 2
File size : 905 MiB
Duration : 29mn 32s
Overall bit rate : 4 285 Kbps
Encoded date : UTC 2016-06-23 12:09:26
Writing application : mkvmerge v8.3.0 ('Over the Horizon') 64bit
Writing library : libebml v1.3.1 + libmatroska v1.4.2

Video
ID : 1
Format : AVC
Format/Info : Advanced Video Codec
Format profile : High@L3.1
Format settings, CABAC : No
Format settings, ReFrames : 2 frames
Codec ID : V_MPEG4/ISO/AVC
Duration : 29mn 32s
Bit rate : 3 816 Kbps
Width : 1 280 pixels
Height : 718 pixels
Display aspect ratio : 16:9
Frame rate mode : Constant
Frame rate : 23.976 fps
Color space : YUV
Chroma subsampling : 4:2:0
Bit depth : 8 bits
Scan type : Progressive
Bits/(Pixel*Frame) : 0.173
Stream size : 806 MiB (89%)
Language : English
Default : Yes
Forced : No
Color range : Limited
Color primaries : BT.709
Transfer characteristics : BT.709
Matrix coefficients : BT.709

Audio
ID : 2
Format : AC-3
Format/Info : Audio Coding 3
Mode extension : CM (complete main)
Format settings, Endianness : Big
Codec ID : A_AC3
Duration : 29mn 32s
Bit rate mode : Constant
Bit rate : 384 Kbps
Channel(s) : 6 channels
Channel positions : Front: L C R, Side: L R, LFE
Sampling rate : 48.0 KHz
Compression mode : Lossy
Stream size : 81.1 MiB (9%)
Language : English
Default : Yes
Forced : No

Text
ID : 3
Format : UTF-8
Codec ID : S_TEXT/UTF8
Codec ID/Info : UTF-8 Plain Text
Language : English
Default : No
Forced : No



Silicon Valley S02 (2015)

Silicon Valley S02 (2015)

Silicon Valley S02 (2015)

Silicon Valley S02 (2015)
http://nitroflare.com/view/AB00607E0DAE705/Silicon.Valley.S02E01.WEB-DLRip.DD2.0.XviD.avi
http://nitroflare.com/view/71661D0FD15FEB7/Silicon.Valley.S02E02.WEB-DLRip.DD2.0.XviD.avi
http://nitroflare.com/view/4238B1CC61E6633/Silicon.Valley.S02E03.WEB-DLRip.DD2.0.XviD.avi
http://nitroflare.com/view/90E92651D3635CD/Silicon.Valley.S02E04.WEB-DLRip.DD2.0.XviD.avi
http://nitroflare.com/view/A0126755AD525D6/Silicon.Valley.S02E05.WEB-DLRip.DD2.0.XviD.avi
http://nitroflare.com/view/5D2A7A88E9CD279/Silicon.Valley.S02E06.WEB-DLRip.DD2.0.XviD.avi
http://nitroflare.com/view/B93B849DBCEAA98/Silicon.Valley.S02E07.WEB-DLRip.DD2.0.XviD.avi
http://nitroflare.com/view/5C6950AC7F92970/Silicon.Valley.S02E08.WEB-DLRip.DD2.0.XviD.avi
http://nitroflare.com/view/430ADD7617C3B2D/Silicon.Valley.S02E09.WEB-DLRip.DD2.0.XviD.avi
http://nitroflare.com/view/76BC91F6876EB07/Silicon.Valley.S02E10.WEB-DLRip.DD2.0.XviD.avi

http://nitroflare.com/view/3E9677EC3293F0F/Silicon.Valley.S02.Eng.Sub.rar

http://nitroflare.com/view/0D46893B3D1CD9D/Silicon.Valley.S02E01.720p.WEB-DL.DD5.1.H.264.mkv
http://nitroflare.com/view/E2164B9F5E0DBAF/Silicon.Valley.S02E02.720p.WEB-DL.DD5.1.H.264.mkv
http://nitroflare.com/view/07DF88C601AB3D8/Silicon.Valley.S02E03.720p.WEB-DL.DD5.1.H.264.mkv
http://nitroflare.com/view/60D860CF9D79CE2/Silicon.Valley.S02E04.720p.WEB-DL.DD5.1.H.264.mkv
http://nitroflare.com/view/A66C1EC53E563FF/Silicon.Valley.S02E05.720p.WEB-DL.DD5.1.H.264.mkv
http://nitroflare.com/view/750BC44724CEB48/Silicon.Valley.S02E06.720p.WEB-DL.DD5.1.H.264.mkv
http://nitroflare.com/view/BC1FFCF48B111D6/Silicon.Valley.S02E07.720p.WEB-DL.DD5.1.H.264.mkv
http://nitroflare.com/view/FFF9635D0A56A5C/Silicon.Valley.S02E08.720p.WEB-DL.DD5.1.H.264.mkv
http://nitroflare.com/view/8207F61E0B68CBA/Silicon.Valley.S02E09.720p.WEB-DL.DD5.1.H.264.mkv
http://nitroflare.com/view/C409A5A2274DDC4/Silicon.Valley.S02E10.720p.WEB-DL.DD5.1.H.264.mkv