(Fr5) Sous le signe de la tortue (2011)

Posted By: Morocco
(Fr5) Sous le signe de la tortue (2011)

(Fr5) Sous le signe de la tortue (2011)
TNT-Rip by Clo2 | French | 52min | 640 x 368 | 25.000 fps | Avi | MPEG-4 XviD @ 895 Kbps | MP3 @ 112 Kbps | 379 MB
Genre : Documentaire

Les tortues marines, qui existent depuis des centaines de milliers d'années, sont aujourd'hui menacées.

En plus de la prédation humaine dévastatrice, le réchauffement des océans entraîne une diminution du corail, des algues et de la population des méduses, nécessaires à leur alimentation.

En quelques décennies, se reproduire et se nourrir leur est devenu difficile. De plus, les plages sur lesquelles les femelles pondent leurs oeufs sont souvent polluées ou défigurées. Comment enrayer ce processus ?

Ce film part à la découverte d'initiatives locales créées par les habitants pour sauver les tortues marines, à Madagascar, aux Seychelles, en Afrique du Sud et à la Réunion.

ormat : AVI
Format/Info : Audio Video Interleave
File size : 379 MiB
Duration : 52mn 9s
Overall bit rate : 1 017 Kbps
Writing application : VirtualDubMod 1.5.10.3 Fr | www.virtualdub-fr.org || (build 2550/release)
Writing library : VirtualDubMod build 2550/release

Video
ID : 0
Format : MPEG-4 Visual
Format profile : Advanced Simple@L5
Format settings, BVOP : 2
Format settings, QPel : No
Format settings, GMC : No warppoints
Format settings, Matrix : Default (MPEG)
Muxing mode : Packed bitstream
Codec ID : XVID
Codec ID/Hint : XviD
Duration : 52mn 9s
Bit rate : 895 Kbps
Width : 640 pixels
Height : 368 pixels
Display aspect ratio : 16:9
Frame rate : 25.000 fps
Color space : YUV
Chroma subsampling : 4:2:0
Bit depth : 8 bits
Scan type : Progressive
Compression mode : Lossy
Bits/(Pixel*Frame) : 0.152
Stream size : 334 MiB (88%)
Writing library : XviD 57

Audio
ID : 1
Format : MPEG Audio
Format version : Version 1
Format profile : Layer 3
Mode : Joint stereo
Codec ID : 55
Codec ID/Hint : MP3
Duration : 52mn 9s
Bit rate mode : Constant
Bit rate : 112 Kbps
Channel(s) : 2 channels
Sampling rate : 48.0 KHz
Compression mode : Lossy
Stream size : 41.8 MiB (11%)
Alignment : Aligned on interleaves
Interleave, duration : 40 ms (1.00 video frame)
Interleave, preload duration : 504 ms
Writing library : LAME3.98r
Encoding settings : -m j -V 4 -q 3 -lowpass 15.6 -b 112


(Fr5) Sous le signe de la tortue (2011)

(Fr5) Sous le signe de la tortue (2011)

(Fr5) Sous le signe de la tortue (2011)

~ Lien ~



No Pass ;)

Un merci ?

No Mirrors !