(Fr5) Spaghettis et tutti quanti (2011)

Posted By: Morocco
(Fr5) Spaghettis et tutti quanti (2011)

(Fr5) Spaghettis et tutti quanti (2011)
TNT-Rip by Clo2 | French | 52min | 576 x 320 | 25.000 fps | Avi | MPEG-4 XviD @ 714 Kbps | MP3 @ 112 Kbps | 311 MB
Genre : Documentaire

Est-ce Marco Polo qui les rapporta de Chine à Venise ou sont-elles nées sous le soleil napolitain ?

Sont-elles meilleures bien cuites ou "al dente", au ketchup ou à la sauce tomate ? Faut-il les couper, les mordre ou les aspirer ?

Ce documentaire dévoile tout ce que l'on a toujours voulu savoir sur les pâtes et ce que l'on n'aurait jamais imaginé, des fossiles de spaghettis préhistoriques aux premières "instant noodle" japonaises, du travail des artisans de Gragnano aux richissimes héritiers de Barilla, en passant par les trois mille restaurants italiens de Tokyo !

On consomme des pâtes dans le monde entier, mais qui connaît vraiment leur étonnante histoire ?

Format : AVI
Format/Info : Audio Video Interleave
File size : 311 MiB
Duration : 52mn 0s
Overall bit rate : 836 Kbps
Writing application : VirtualDubMod 1.5.10.3 Fr | www.virtualdub-fr.org || (build 2550/release)
Writing library : VirtualDubMod build 2550/release

Video
ID : 0
Format : MPEG-4 Visual
Format profile : Advanced Simple@L5
Format settings, BVOP : 2
Format settings, QPel : No
Format settings, GMC : No warppoints
Format settings, Matrix : Default (MPEG)
Muxing mode : Packed bitstream
Codec ID : XVID
Codec ID/Hint : XviD
Duration : 52mn 0s
Bit rate : 714 Kbps
Width : 576 pixels
Height : 320 pixels
Display aspect ratio : 16:9
Frame rate : 25.000 fps
Color space : YUV
Chroma subsampling : 4:2:0
Bit depth : 8 bits
Scan type : Progressive
Compression mode : Lossy
Bits/(Pixel*Frame) : 0.155
Stream size : 266 MiB (85%)
Writing library : XviD 57

Audio
ID : 1
Format : MPEG Audio
Format version : Version 1
Format profile : Layer 3
Mode : Joint stereo
Mode extension : MS Stereo
Codec ID : 55
Codec ID/Hint : MP3
Duration : 52mn 0s
Bit rate mode : Constant
Bit rate : 112 Kbps
Channel(s) : 2 channels
Sampling rate : 48.0 KHz
Compression mode : Lossy
Stream size : 41.7 MiB (13%)
Alignment : Aligned on interleaves
Interleave, duration : 40 ms (1.00 video frame)
Interleave, preload duration : 504 ms
Writing library : LAME3.98r
Encoding settings : -m j -V 4 -q 3 -lowpass 15.6 -b 112


(Fr5) Spaghettis et tutti quanti (2011)

(Fr5) Spaghettis et tutti quanti (2011)

(Fr5) Spaghettis et tutti quanti (2011)

(Fr5) Spaghettis et tutti quanti (2011)

~ Lien ~



No Pass ;)

Un merci ?

No Mirrors !