(Arte) Je suis un psychopathe (2012)

Posted By: Morocco
(Arte) Je suis un psychopathe (2012)

(Arte) Je suis un psychopathe (2012)
TNT-Rip by Clo2 | French | 1h22min | 608 x 344 | 25.000 fps | Avi | MPEG-4 XviD @ 795 Kbps | MP3 @ 112 Kbps | 543 MB
Genre : Documentaire

Ian Walker filme les étapes d'un diagnostic qui doit déterminer si un patient est ou non psychopathe. Ce documentaire insolite montre toute la puissance de manipulation de ce type de personnalité…

Sam Vaknin le dit lui-même : il est psychopathe, c'est-à-dire mégalomane, contradictoire, imprévisible et sans scrupules. Il dit cela sans gêne ni remords, puisque l'un des symptômes de ce trouble de la personnalité est le déni de la réalité de l'autre. Comme beaucoup de psychopathes, Sam est charmeur et manipulateur, mais capable de détruire la vie de son prochain autant que la sienne. Toutefois, tous les psychopathes ne passent pas à l'acte et ne sont pas des tueurs. C'est le cas pour Sam Vaknin comme pour environ 1 % de la population si l'on en croit certains experts tels que le neurobiologiste allemand Niels Birbaumer, qui estime que l'on n'étudie pas assez les ravages causés par ces patients qui s'ignorent. Contrairement à la plupart de ceux qui souffrent d'un tel syndrome, Sam Vaknin voudrait toutefois en savoir davantage sur lui-même. Il réclame un diagnostic scientifique sur son cas. Le réalisateur Ian Walker, qui suit cette enquête inhabituelle, rencontre aussi le professeur Robert D. Hare, spécialiste mondialement reconnu en la matière. Hare doute que quiconque ayant des capacités normales de ressentir et d'agir puisse se protéger entièrement du pouvoir subtilement destructeur des psychopathes. Le documentaire confirmera-t-il ces craintes ?

Format : AVI
Format/Info : Audio Video Interleave
File size : 543 MiB
Duration : 1h 22mn
Overall bit rate : 917 Kbps
Writing application : VirtualDubMod 1.5.10.3 Fr | www.virtualdub-fr.org || (build 2550/release)
Writing library : VirtualDubMod build 2550/release

Video
ID : 0
Format : MPEG-4 Visual
Format profile : Advanced Simple@L5
Format settings, BVOP : 2
Format settings, QPel : No
Format settings, GMC : No warppoints
Format settings, Matrix : Default (H.263)
Muxing mode : Packed bitstream
Codec ID : XVID
Codec ID/Hint : XviD
Duration : 1h 22mn
Bit rate : 795 Kbps
Width : 608 pixels
Height : 344 pixels
Display aspect ratio : 16:9
Frame rate : 25.000 fps
Color space : YUV
Chroma subsampling : 4:2:0
Bit depth : 8 bits
Scan type : Progressive
Compression mode : Lossy
Bits/(Pixel*Frame) : 0.152
Stream size : 471 MiB (87%)
Writing library : XviD 64

Audio
ID : 1
Format : MPEG Audio
Format version : Version 1
Format profile : Layer 3
Mode : Joint stereo
Mode extension : MS Stereo
Codec ID : 55
Codec ID/Hint : MP3
Duration : 1h 22mn
Bit rate mode : Constant
Bit rate : 112 Kbps
Channel(s) : 2 channels
Sampling rate : 48.0 KHz
Compression mode : Lossy
Stream size : 66.3 MiB (12%)
Alignment : Aligned on interleaves
Interleave, duration : 40 ms (1.00 video frame)
Interleave, preload duration : 504 ms
Writing library : LAME3.98r
Encoding settings : -m j -V 4 -q 3 -lowpass 15.6 -b 112


(Arte) Je suis un psychopathe (2012)

(Arte) Je suis un psychopathe (2012)

(Arte) Je suis un psychopathe (2012)

(Arte) Je suis un psychopathe (2012)

(Arte) Je suis un psychopathe (2012)

No Pass ;)

Un merci ?