(Fr5) Superstructures XXL : Nasa, objectif Mars (2010)

Posted By: Morocco
(Fr5) Superstructures XXL : Nasa, objectif Mars (2010)

(Fr5) Superstructures XXL : Nasa, objectif Mars (2010)
TNT-Rip by Clo2 | French | 48min | 640 x 368 | 25.000 fps | Avi | MPEG-4 XviD @ 895 Kbps | MP3 @ 112 Kbps | 349 MB
Genre : Documentaire

Danny Forster pénètre dans l'un des endroits les plus sécurisés au monde : le centre spatial de la NASA.

Alors que la navette spatiale Endeavour s'apprête à effectuer l'un de ses derniers vols, la NASA lance sa mission la plus audacieuse : "Constellation".

Les ingénieurs conçoivent une nouvelle gamme de fusées et de rampes de lancement, pour que l'homme puisse retourner sur la Lune et marcher sur la planète Mars.

Dans ce projet, le plus gros défi réside dans la préparation physique des astronautes.

Format : AVI
Format/Info : Audio Video Interleave
File size : 349 MiB
Duration : 48mn 4s
Overall bit rate : 1 016 Kbps
Writing application : VirtualDubMod 1.5.10.3 Fr | www.virtualdub-fr.org || (build 2550/release)
Writing library : VirtualDubMod build 2550/release

Video
ID : 0
Format : MPEG-4 Visual
Format profile : Advanced Simple@L5
Format settings, BVOP : 2
Format settings, QPel : No
Format settings, GMC : No warppoints
Format settings, Matrix : Default (MPEG)
Muxing mode : Packed bitstream
Codec ID : XVID
Codec ID/Hint : XviD
Duration : 48mn 4s
Bit rate : 895 Kbps
Width : 640 pixels
Height : 368 pixels
Display aspect ratio : 16:9
Frame rate : 25.000 fps
Color space : YUV
Chroma subsampling : 4:2:0
Bit depth : 8 bits
Scan type : Progressive
Compression mode : Lossy
Bits/(Pixel*Frame) : 0.152
Stream size : 308 MiB (88%)
Writing library : XviD 1.2.1 (UTC 2008-12-04)

Audio
ID : 1
Format : MPEG Audio
Format version : Version 1
Format profile : Layer 3
Mode : Joint stereo
Mode extension : MS Stereo
Codec ID : 55
Codec ID/Hint : MP3
Duration : 48mn 4s
Bit rate mode : Constant
Bit rate : 112 Kbps
Channel(s) : 2 channels
Sampling rate : 48.0 KHz
Compression mode : Lossy
Stream size : 38.5 MiB (11%)
Alignment : Aligned on interleaves
Interleave, duration : 40 ms (1.00 video frame)
Interleave, preload duration : 504 ms
Writing library : LAME3.98r
Encoding settings : -m j -V 4 -q 3 -lowpass 15.6 -b 112


(Fr5) Superstructures XXL : Nasa, objectif Mars (2010)

(Fr5) Superstructures XXL : Nasa, objectif Mars (2010)

(Fr5) Superstructures XXL : Nasa, objectif Mars (2010)

~ Lien ~



No Pass ;)

Un merci ?

No Mirrors !