(Fr5) Superstructures SOS : Le satellite d'Ariane (2010)

Posted By: Morocco
(Fr5) Superstructures SOS : Le satellite d'Ariane (2010)

(Fr5) Superstructures SOS : Le satellite d'Ariane (2010)
TNT-Rip by Clo2 | French | 50min | 640 x 368 | 25.000 fps | Avi | MPEG-4 XviD @ 895 Kbps | MP3 @ 112 Kbps | 364 MB
Genre : Documentaire

Sean Riley s'immisce dans les coulisses de la base spatiale d'Ariane, en Guyane française.

Il va observer la mise en place d'un satellite de communication dans une fusée.

Il assiste à l'assemblage de cette fusée, au montage du satellite dans celle-ci et participe aux exercices de sécurité de la base.

Le compte à rebours avant le décollage est lancé…

Format : AVI
Format/Info : Audio Video Interleave
File size : 364 MiB
Duration : 50mn 6s
Overall bit rate : 1 016 Kbps
Writing application : VirtualDubMod 1.5.10.3 Fr | www.virtualdub-fr.org || (build 2550/release)
Writing library : VirtualDubMod build 2550/release

Video
ID : 0
Format : MPEG-4 Visual
Format profile : Advanced Simple@L5
Format settings, BVOP : 2
Format settings, QPel : No
Format settings, GMC : No warppoints
Format settings, Matrix : Default (MPEG)
Muxing mode : Packed bitstream
Codec ID : XVID
Codec ID/Hint : XviD
Duration : 50mn 6s
Bit rate : 895 Kbps
Width : 640 pixels
Height : 368 pixels
Display aspect ratio : 16:9
Frame rate : 25.000 fps
Color space : YUV
Chroma subsampling : 4:2:0
Bit depth : 8 bits
Scan type : Progressive
Compression mode : Lossy
Bits/(Pixel*Frame) : 0.152
Stream size : 321 MiB (88%)
Writing library : XviD 1.2.1 (UTC 2008-12-04)

Audio
ID : 1
Format : MPEG Audio
Format version : Version 1
Format profile : Layer 3
Mode : Joint stereo
Mode extension : MS Stereo
Codec ID : 55
Codec ID/Hint : MP3
Duration : 50mn 6s
Bit rate mode : Constant
Bit rate : 112 Kbps
Channel(s) : 2 channels
Sampling rate : 48.0 KHz
Compression mode : Lossy
Stream size : 40.1 MiB (11%)
Alignment : Aligned on interleaves
Interleave, duration : 40 ms (1.00 video frame)
Interleave, preload duration : 504 ms
Writing library : LAME3.98r
Encoding settings : -m j -V 4 -q 3 -lowpass 15.6 -b 112


(Fr5) Superstructures SOS : Le satellite d'Ariane (2010)

(Fr5) Superstructures SOS : Le satellite d'Ariane (2010)

(Fr5) Superstructures SOS : Le satellite d'Ariane (2010)

~ Lien ~



No Pass ;)

Un merci ?

No Mirrors !