Support Your Local Gunfighter (1971)

Posted By: a_l_chemist
Support Your Local Gunfighter (1971)

Support Your Local Gunfighter (1971)
DVDRip | AVI | XviD | 720x400, 1992 kbps | English: AC3, 2ch, 256 kbps | 01:32:11 | 1,54 GB
Subs: English (srt), French, Spanish (idx+sub)
Genre: Comedy | Western

Support Your Local Gunfighter is a 1971 comic western film directed by Burt Kennedy, written by James Edward Grant and starring James Garner, Suzanne Pleshette, Jack Elam and Harry Morgan. The film shares many cast and crew members and plot elements with the earlier Support Your Local Sheriff!

Plot: Con artist Latigo Smith is on board a train traveling across frontier-era Colorado, with his would-be fiancée, a rich and powerful woman named Goldie. Looking for a way to escape this situation, he manages to slip off the train at a jerkwater stop, and finds himself in Purgatory, a small town wherein two rival companies of miners, led by Taylor Barton and Colonel Ames, are in a frantic round-the-clock race to find "the motherlode" of gold buried somewhere under the town. After consulting the town doctor about getting an embarrassing Goldie-related tattoo removed, Latigo succumbs to a gambling compulsion and loses all his money at roulette. After hearing a rumor that an infamous gunslinger named "Swiftie" Morgan is in town, Latigo concocts a scam, using the amiable ne'er-do-well Jug May to impersonate the man. In the process of this, the new arrival attracts the attention of Patience "The Sidewinder" Barton, the hot-tempered daughter of Taylor, who wants nothing more than to escape the town and become a woman of refinement in New York City. When Latigo and the fake Swiftie side with the Bartons, Ames sends a telegram to the real gunslinger, informing him of the impostor. Swiftie soon arrives in town. Latigo has replaced Jug for the climactic gunfight and sits atop a jackass-load of dynamite, attempting to bluff the gunfighter. The show-down ends with one of the massive mining blasts that regularly rock the town.
–from wikipedia
…..IMDb | Rovi
Support Your Local Gunfighter (1971)

Support Your Local Gunfighter (1971)

Support Your Local Gunfighter (1971)

Support Your Local Gunfighter (1971)

Support Your Local Gunfighter (1971)

General
Complete name : E:\Movies\Support Your Local Gunfighter\Support Your Local Gunfighter.avi
Format : AVI
Format/Info : Audio Video Interleave
File size : 1.45 GiB
Duration : 1h 32mn
Overall bit rate : 2 258 Kbps
Movie name : Support Your Local Gunfighter
Writing application : VirtualDubMod 1.5.10.2 (build 2540/release)
Writing library : VirtualDubMod build 2540/release

Video
ID : 0
Format : MPEG-4 Visual
Format profile : Advanced Simple@L5
Format settings, BVOP : 2
Format settings, QPel : No
Format settings, GMC : No warppoints
Format settings, Matrix : Default (H.263)
Muxing mode : Packed bitstream
Codec ID : XVID
Codec ID/Hint : XviD
Duration : 1h 32mn
Bit rate : 1 992 Kbps
Width : 720 pixels
Height : 400 pixels
Display aspect ratio : 16:9
Frame rate : 23.976 fps
Color space : YUV
Chroma subsampling : 4:2:0
Bit depth : 8 bits
Scan type : Progressive
Compression mode : Lossy
Bits/(Pixel*Frame) : 0.289
Stream size : 1.28 GiB (88%)
Writing library : XviD 1.2.1 (UTC 2008-12-04)

Audio
ID : 1
Format : AC-3
Format/Info : Audio Coding 3
Mode extension : CM (complete main)
Codec ID : 2000
Duration : 1h 32mn
Bit rate mode : Constant
Bit rate : 256 Kbps
Channel(s) : 2 channels
Channel positions : Front: L R
Sampling rate : 48.0 KHz
Bit depth : 16 bits
Compression mode : Lossy
Stream size : 169 MiB (11%)
Alignment : Split accross interleaves
Interleave, duration : 42 ms (1.00 video frame)
Interleave, preload duration : 500 ms

Download:

Filesonic
List of links

Wupload
List of links

Fileserve
List of links

Uploaded
List of links

Interchangeable links

Support Your Local Sheriff! (1969) DVDRip

My blog on AvaxHome

.: No Mirrors Please :.