Discovery Channel - The Battle of Chernobyl / Битва за Чернобыль (2006) [Repost]

Posted By: Tutorial
Discovery Channel - The Battle of Chernobyl / Битва за Чернобыль (2006) [Repost]

Discovery Channel - The Battle of Chernobyl / Битва за Чернобыль (2006)
DVDRip | 640 x 480 | .AVI/XviD @ 1000 Kbps | 1h 33mn | Russian MP3 64.0 kbps, 1 channel | 716 MB
Genre: Documentary

On April 26,1986 at 1:24am, a rainbow-colored flame shot 1,000 meters high into the Ukrainian sky. The fourth reactor at the Chernobyl nuclear power plant had just exploded. The battle of Chernobyl had begun. For eight months, 800,000 young soldiers, miners and even civilians from all corners of the Soviet Union worked to try and "liquidate" the radioactivity, build a "sarcophagus" around the ruined reactor, and above all, to save the world from a second explosion. Provoked by a terrific chain reaction, a second nuclear explosion ten times more powerful than Hiroshima, threatened at any moment to wipe out not only the entire Ukraine, but half of Europe as well.

Director: Thomas Johnson
Stars: Tim Birkett, Mikhail Gorbachev, Oleg Mirochnikov
More info: IMDB

Related Documentaries:
Life After: Chernobyl (2014)
UKTV - Chernobyl: A Natural History (2010)
Discovery Channel - The Battle of Chernobyl (2006)
Trinity and Beyond: The Atomic Bomb Movie (1995)
Trinity and Beyond: The Atomic Bomb Movie (1995)
Race for The World's First Atomic Bomb: A Thousand Days of Fear (2015)
PBS Nova - Secrets, Lies and Atomic Spies (2002)
Countdown to Zero (2010)
PBS - The Bomb (2015)

General
Complete name : Battle.of.Chernobyl.avi
Format : AVI
Format/Info : Audio Video Interleave
File size : 716 MiB
Duration : 1h 33mn
Overall bit rate : 1 074 Kbps
Writing library : VirtualDub-MPEG2 build 23843/release

Video
ID : 0
Format : MPEG-4 Visual
Format profile : Simple@L3
Format settings, BVOP : No
Format settings, QPel : No
Format settings, GMC : No warppoints
Format settings, Matrix : Default (H.263)
Codec ID : XVID
Codec ID/Hint : XviD
Duration : 1h 33mn
Bit rate : 1 000 Kbps
Width : 640 pixels
Height : 480 pixels
Display aspect ratio : 4:3
Frame rate : 25.000 fps
Color space : YUV
Chroma subsampling : 4:2:0
Bit depth : 8 bits
Scan type : Progressive
Compression mode : Lossy
Bits/(Pixel*Frame) : 0.130
Stream size : 667 MiB (93%)
Writing library : XviD 0.0.08 (UTC 2003-01-14)

Audio
ID : 1
Format : MPEG Audio
Format version : Version 1
Format profile : Layer 3
Codec ID : 55
Codec ID/Hint : MP3
Duration : 1h 33mn
Bit rate mode : Constant
Bit rate : 64.0 Kbps
Channel(s) : 1 channel
Sampling rate : 44.1 KHz
Compression mode : Lossy
Stream size : 42.5 MiB (6%)
Alignment : Split accross interleaves
Interleave, duration : 40 ms (1.00 video frame)
Interleave, preload duration : 502 ms
Screenshots

Discovery Channel - The Battle of Chernobyl / Битва за Чернобыль (2006) [Repost]

Discovery Channel - The Battle of Chernobyl / Битва за Чернобыль (2006) [Repost]

Discovery Channel - The Battle of Chernobyl / Битва за Чернобыль (2006) [Repost]

Discovery Channel - The Battle of Chernobyl / Битва за Чернобыль (2006) [Repost]

Welcome to my blog - daily update!

Discovery Channel - The Battle of Chernobyl / Битва за Чернобыль (2006) [Repost]