Tags
Language
Tags
April 2024
Su Mo Tu We Th Fr Sa
31 1 2 3 4 5 6
7 8 9 10 11 12 13
14 15 16 17 18 19 20
21 22 23 24 25 26 27
28 29 30 1 2 3 4

The Broken Brain (2017)

Posted By: ParRus
720p (HD) / WEB-DL
The Broken Brain (2017)

The Broken Brain (2017)
PDTV | MP4 | 10:33:11 | 2.71 GB | 1280x720 | AVC@458 kb/s | English AAC@126 kb/s, 2 ch
WEB-DL 720p | MP4 | 10:21:00 | 5.73 GB | 1280x720 | AVC@1655 kb/s | English AAC@256 kb/s, 2 ch
+ PDF Guide
Genre: Documentary

Mark Hyman spent this past year traveling the country interviewing the top brain health experts to bring you the most cutting edge research and information on topics such as Alzheimer's, dementia, ADHD, autism, depression, anxiety, MS, Parkinson's, brain fog and more…
Did you know:
+ Psychiatric disorders affect over 26% of our adult population and over 20% of our adolescent population.
+ Over 40 million people suffer from anxiety and more than 20 million people have depression.
+ 1-10 Americans takes an antidepressant, which has tripled in the past decade.
+ Alzheimer's will affect 30%, and some experts are saying up to 50% of people over the age of 85.
+ 9% of our 8-15 year olds have been given the label, ADHD.
+ In the last decade, autism has increased from 3 in 10,000 to 1 in 166.

What if I told you that the cure for most brain disorders and a better brain is OUTSIDE the brain? You won't want to miss this important docuseries. It's time we address the epidemic of broken brains.

Episode 1. The Broken Brain Epidemic: My Story (October 18)
Dr. Hyman brings together some of the world's leading brain and health experts, to talk about the increase of broken brain syndrome. Just how bad is this epidemic? And how can you tell if you have a broken brain?

Episode 2. Gut Brain Connection: Getting to The Root of a Broken Brain (October 19)
Experts discuss what is possibly one of the key pieces of the puzzle when treating brain disorders: the gut-brain connection. The gut is often referred to as our second brain. Why? Find out in this fascinating episode that shows us just how connected our brain is to the rest of our body.

Episode 3. Losing Our Minds: Alzheimer's, Dementia and MS (October 20)
Alzheimer's and dementia are devastating brain disorders that rob elderly of their past. Unfortunately, even middle-aged individuals are suffering from memory loss. What is causing the increase in dementia and Alzheimer's and is there anything we can do about it?

Episode 4. ADHD & Autism (October 21)
Are autism and ADHD just names we give to people with a list of similar symptoms? You might be surprised to hear that treating patients with ADHD or on the autism spectrum does not look so different from treating patients who have dementia or other illnesses. In episode four we take a deep dive into ADHD and autism.

Episode 5. Depression & Anxiety (October 22)
Depression is the leading cause of disability in America. Anxiety plagues more and more people every single day. Look around, chances are you know someone who is suffering from depression or anxiety. Find out how Functional Medicine treats these devastating brain disorders in episode five of Broken Brain.

Episode 6. Traumatic Brain Injury: Accidents, Sports & More (October 23)
When suffering from a traumatic brain injury, conventional medicine often fails to provide the right support that we need to recover. Functional Medicine takes a different approach. Learn about this approach in episode six where we feature the miraculous story of recovery from a broken brain.

Episode 7. Creating an UltraMind (Part 1) (October 24)
We take all of the advice outlined by our experts and turn them into practical steps that you can take today toward a better brain. In episode seven we cover the first four steps to an UltraMind: Optimize nutrition, balance hormones, cool off inflammation, and heal your gut.

Episode 8. Creating an UltraMind (Part 2) (October 25)
In the final episode of this docuseries, we cover the last three steps to achieving an UltraMind: Detoxify the body, boost mitochondria, and calm the mind. Our experts also provide their top tips for optimizing brain health, and we discuss the power of community.

Episode 8 lays out a 6-week plan to protect your brain health:
+ Week 1 Eating right for your brain.
+ Week 2 Tuning up your brain with supplements.
+ Week 3 Finding some form of daily movement that you love.
+ Week 4 Sleeping to allow your brain time to relax.
+ Week 5 Training your brain.
+ Week 6 Live clean and green. Minimize toxic exposure.


also You can look my other last: Documentary-posts

General
Complete name : Broken Brain Episode 1.mp4
Format : MPEG-4
Format profile : Base Media / Version 2
Codec ID : mp42 (isom/mp42)
File size : 246 MiB
Duration : 58 min 37 s
Overall bit rate mode : Variable
Overall bit rate : 588 kb/s
Encoded date : UTC 2018-01-17 03:38:56
Tagged date : UTC 2018-01-17 03:38:56
gsst : 0
gstd : 3517289

Tags:
health series
brain
dementia
ADHD
Autism
alzheimers
psychiatry
depression

Video
ID : 1
Format : AVC
Format/Info : Advanced Video Codec
Format profile : Main@L3.1
Format settings : CABAC / 3 Ref Frames
Format settings, CABAC : Yes
Format settings, RefFrames : 3 frames
Codec ID : avc1
Codec ID/Info : Advanced Video Coding
Duration : 58 min 37 s
Bit rate : 458 kb/s
Width : 1 280 pixels
Height : 720 pixels
Display aspect ratio : 16:9
Frame rate mode : Variable
Frame rate : 23.976 (24000/1001) FPS
Minimum frame rate : 23.974 FPS
Maximum frame rate : 23.981 FPS
Color space : YUV
Chroma subsampling : 4:2:0
Bit depth : 8 bits
Scan type : Progressive
Bits/(Pixel*Frame) : 0.021
Stream size : 192 MiB (78%)
Title : ISO Media file produced by Google Inc. Created on: 01/16/2018.
Encoded date : UTC 2018-01-17 03:38:56
Tagged date : UTC 2018-01-17 03:38:56
Color range : Limited
Color primaries : BT.709
Transfer characteristics : BT.709
Matrix coefficients : BT.709

Audio
ID : 2
Format : AAC
Format/Info : Advanced Audio Codec
Format profile : LC
Codec ID : mp4a-40-2
Duration : 58 min 37 s
Bit rate mode : Variable
Bit rate : 126 kb/s
Channel(s) : 2 channels
Channel positions : Front: L R
Sampling rate : 44.1 kHz
Frame rate : 43.066 FPS (1024 SPF)
Compression mode : Lossy
Stream size : 52.7 MiB (21%)
Title : ISO Media file produced by Google Inc. Created on: 01/16/2018.
Encoded date : UTC 2018-01-17 03:38:56
Tagged date : UTC 2018-01-17 03:38:56

General
Complete name : Ep1(of8)_The-Broken-Brain-Epidemic.mp4
Format : MPEG-4
Format profile : Base Media
Codec ID : isom (isom/iso2/avc1/mp41)
File size : 803 MiB
Duration : 58 min 37 s
Overall bit rate mode : Variable
Overall bit rate : 1 915 kb/s
Writing application : Lavf54.20.4

Video
ID : 1
Format : AVC
Format/Info : Advanced Video Codec
Format profile : High@L3.2
Format settings : CABAC / 5 Ref Frames
Format settings, CABAC : Yes
Format settings, RefFrames : 5 frames
Codec ID : avc1
Codec ID/Info : Advanced Video Coding
Duration : 58 min 37 s
Duration_LastFrame : 83 ms
Bit rate mode : Variable
Bit rate : 1 655 kb/s
Width : 1 280 pixels
Height : 720 pixels
Display aspect ratio : 16:9
Frame rate mode : Constant
Frame rate : 23.976 (24000/1001) FPS
Color space : YUV
Chroma subsampling : 4:2:0
Bit depth : 8 bits
Scan type : Progressive
Bits/(Pixel*Frame) : 0.075
Stream size : 694 MiB (86%)
Writing library : x264 core 152 r10 ba24899
Encoding settings : cabac=1 / ref=5 / deblock=1:0:0 / analyse=0x3:0x113 / me=hex / subme=8 / psy=1 / psy_rd=1.00:0.00 / mixed_ref=1 / me_range=16 / chroma_me=1 / trellis=2 / 8x8dct=1 / cqm=0 / deadzone=21,11 / fast_pskip=1 / chroma_qp_offset=-2 / threads=22 / lookahead_threads=3 / sliced_threads=0 / nr=0 / decimate=1 / interlaced=0 / bluray_compat=0 / stitchable=1 / constrained_intra=0 / bframes=3 / b_pyramid=2 / b_adapt=2 / b_bias=0 / direct=3 / weightb=1 / open_gop=0 / weightp=2 / keyint=infinite / keyint_min=23 / scenecut=40 / intra_refresh=0 / rc_lookahead=50 / rc=crf / mbtree=1 / crf=20.0 / qcomp=0.60 / qpmin=5 / qpmax=69 / qpstep=4 / vbv_maxrate=2750 / vbv_bufsize=7500 / crf_max=0.0 / nal_hrd=none / filler=0 / ip_ratio=1.40 / aq=1:1.00
Color range : Limited
Color primaries : BT.709
Transfer characteristics : BT.709
Matrix coefficients : BT.709

Audio
ID : 2
Format : AAC
Format/Info : Advanced Audio Codec
Format profile : LC
Codec ID : mp4a-40-2
Duration : 58 min 37 s
Bit rate mode : Variable
Bit rate : 256 kb/s
Channel(s) : 2 channels
Channel positions : Front: L R
Sampling rate : 48.0 kHz
Frame rate : 46.875 FPS (1024 SPF)
Compression mode : Lossy
Stream size : 107 MiB (13%)
Default : Yes
Alternate group : 1
Screenshots PDTV

The Broken Brain (2017)

The Broken Brain (2017)

The Broken Brain (2017)

Screenshots WEB-DL 720p

The Broken Brain (2017)

The Broken Brain (2017)

The Broken Brain (2017)

The Broken Brain (2017)

Exclusive eLearning Videos ParRus-blogadd to bookmarks

The Broken Brain (2017)