Tags
Language
Tags

The African Americans: Many Rivers to Cross (2013)

Posted By: notbanned
SD / DVDRip IMDb
The African Americans: Many Rivers to Cross (2013)

The African Americans: Many Rivers to Cross (2013)
DVDRip | 716x404 | .MKV/AVC @ 1122 Kbps | 6x~56min | 2.74 GiB
Audio: English AAC 127 kbps, 2 channels | Subs: None
Genre: Documentary

The African Americans: Many Rivers to Cross is a six-part documentary miniseries written and presented by Henry Louis Gates Jr. It aired for the first time on the Public Broadcasting Service (PBS) in the fall of 2013, beginning with episode 1, "The Black Atlantic (1500–1800)", on October 22, 8–9 p.m. ET on PBS, and every consecutive Tuesday through to episode 6, "A More Perfect Union (1968–2013)", on November 26. The companion book to the series, The African Americans: Many Rivers to Cross (SmileyBooks, 2013), was co-authored by Gates and historian Donald Yacovone.

General
Unique ID : 230510826468017921196024416073742141738 (0xAD6AC533B15FBA97A146C3F29165C92A)
Complete name : the.african.americans.many.rivers.to.cross.part.1.dvdrip.mkv
Format : Matroska
Format version : Version 4 / Version 2
File size : 503 MiB
Duration : 56 min 11 s
Overall bit rate : 1 251 kb/s

Video
ID : 1
Format : AVC
Format/Info : Advanced Video Codec
Format profile : High@L3.1
Format settings, CABAC : Yes
Format settings, ReFrames : 15 frames
Codec ID : V_MPEG4/ISO/AVC
Duration : 56 min 11 s
Bit rate : 1 122 kb/s
Width : 716 pixels
Height : 404 pixels
Display aspect ratio : 16:9
Frame rate mode : Constant
Frame rate : 29.970 (30000/1001) FPS
Color space : YUV
Chroma subsampling : 4:2:0
Bit depth : 8 bits
Scan type : Progressive
Bits/(Pixel*Frame) : 0.129
Stream size : 451 MiB (90%)
Writing library : x264 core 157 r2970 5493be8
Encoding settings : cabac=1 / ref=15 / deblock=1:0:0 / analyse=0x3:0x133 / me=umh / subme=10 / psy=1 / psy_rd=1.00:0.00 / mixed_ref=1 / me_range=24 / chroma_me=1 / trellis=2 / 8x8dct=1 / cqm=0 / deadzone=21,11 / fast_pskip=1 / chroma_qp_offset=-2 / threads=13 / lookahead_threads=2 / sliced_threads=0 / nr=0 / decimate=1 / interlaced=0 / bluray_compat=0 / constrained_intra=0 / bframes=8 / b_pyramid=2 / b_adapt=2 / b_bias=0 / direct=3 / weightb=1 / open_gop=0 / weightp=2 / keyint=250 / keyint_min=25 / scenecut=40 / intra_refresh=0 / rc_lookahead=60 / rc=crf / mbtree=1 / crf=19.0 / qcomp=0.60 / qpmin=0 / qpmax=69 / qpstep=4 / ip_ratio=1.40 / aq=1:1.00
Default : Yes
Forced : No

Audio
ID : 2
Format : AAC
Format/Info : Advanced Audio Codec
Format profile : LC
Codec ID : A_AAC
Duration : 56 min 11 s
Bit rate : 127 kb/s
Channel(s) : 2 channels
Channel positions : Front: L R
Sampling rate : 48.0 kHz
Frame rate : 46.875 FPS (1024 spf)
Compression mode : Lossy
Delay relative to video : 20 ms
Stream size : 50.9 MiB (10%)
Language : English
Default : Yes
Forced : No


Screenshots:

The African Americans: Many Rivers to Cross (2013)

The African Americans: Many Rivers to Cross (2013)

The African Americans: Many Rivers to Cross (2013)

The African Americans: Many Rivers to Cross (2013)