BBC - The Search for Life: The Drake Equation (2010)

Posted By: notbanned
720p (HD) / HDTV
BBC - The Search for Life: The Drake Equation (2010)

BBC - The Search for Life: The Drake Equation (2010)
HDTV | 1280x718 | .MKV/AVC @ 2893 Kbps | 58 min 58 s | 1.24 GiB
Audio: English AAC 124 kbps, 2 channels | Subs: None
Genre: Documentary

For many years our place in the universe was the subject of theologians and philosophers, not scientists, but in 1960 one man changed all that. Dr Frank Drake was one of the leading lights in the new science of radio astronomy when he did something that was not only revolutionary, but could have cost him his career. Working at the National Radio Astronomy Observatory in Greenback in Virginia, he pointed one of their new 25-metre radio telescopes at a star called Tau Ceti twelve light years from earth, hoping for signs of extraterrestrial intelligence. Although project Ozma resulted in silence, it did result in one of the most seminal equations in the history of science - the Drake Equation - which examined seven key elements necessary for extraterrestrial intelligence to exist, from the formation of stars to the likely length a given intelligent civilisation may survive. When Frank and his colleagues entered the figures, the equation suggested there were a staggering 50,000 civilisations capable of communicating across the galaxy. However, in the 50 years of listening that has followed, not one single bleep has been heard from extraterrestrials. So were Drake and his followers wrong and is there no life form out there capable of communicating? Drake's own calculations suggest that we would have to scan the entire radio spectrum of ten million stars to be sure of contact. The answers to those questions suggest that, far from being a one off, life may not only be common in the universe but once started will lead inevitably towards intelligent life. To find out about the equation's influence, Dallas Campbell goes on a worldwide journey to meet the scientists who have dedicated their lives to focusing on its different aspects.

General
Unique ID : 198602598990242920110690092717542340551 (0x956978204C8C7448570935367929F7C7)
Complete name : the.search.for.life.the.drake.equation.2010.720p.mkv
Format : Matroska
Format version : Version 4 / Version 2
File size : 1.24 GiB
Duration : 58 min 58 s
Overall bit rate : 3 020 kb/s

Video
ID : 1
Format : AVC
Format/Info : Advanced Video Codec
Format profile : High@L4.1
Format settings, CABAC : Yes
Format settings, ReFrames : 5 frames
Codec ID : V_MPEG4/ISO/AVC
Duration : 58 min 58 s
Bit rate : 2 893 kb/s
Width : 1 280 pixels
Height : 718 pixels
Display aspect ratio : 16:9
Frame rate mode : Constant
Frame rate : 50.000 FPS
Color space : YUV
Chroma subsampling : 4:2:0
Bit depth : 8 bits
Scan type : Progressive
Bits/(Pixel*Frame) : 0.063
Stream size : 1.19 GiB (96%)
Writing library : x264 core 157 r2969 d4099dd
Encoding settings : cabac=1 / ref=5 / deblock=1:-3:-3 / analyse=0x3:0x113 / me=hex / subme=8 / psy=1 / psy_rd=1.00:0.15 / mixed_ref=1 / me_range=16 / chroma_me=1 / trellis=2 / 8x8dct=1 / cqm=0 / deadzone=21,11 / fast_pskip=1 / chroma_qp_offset=-3 / threads=22 / lookahead_threads=3 / sliced_threads=0 / nr=0 / decimate=1 / interlaced=0 / bluray_compat=0 / constrained_intra=0 / bframes=3 / b_pyramid=2 / b_adapt=1 / b_bias=0 / direct=3 / weightb=1 / open_gop=0 / weightp=2 / keyint=250 / keyint_min=25 / scenecut=40 / intra_refresh=0 / rc_lookahead=50 / rc=crf / mbtree=1 / crf=20.0 / qcomp=0.60 / qpmin=0 / qpmax=69 / qpstep=4 / vbv_maxrate=62500 / vbv_bufsize=78125 / crf_max=0.0 / nal_hrd=none / filler=0 / ip_ratio=1.40 / aq=1:0.60
Default : Yes
Forced : No
Color range : Limited
Matrix coefficients : BT.709

Audio
ID : 2
Format : AAC
Format/Info : Advanced Audio Codec
Format profile : LC
Codec ID : A_AAC
Duration : 58 min 58 s
Bit rate : 124 kb/s
Channel(s) : 2 channels
Channel positions : Front: L R
Sampling rate : 48.0 kHz
Frame rate : 46.875 FPS (1024 spf)
Compression mode : Lossy
Stream size : 52.3 MiB (4%)
Language : English
Default : Yes
Forced : No


Screenshots:

BBC - The Search for Life: The Drake Equation (2010)

BBC - The Search for Life: The Drake Equation (2010)

BBC - The Search for Life: The Drake Equation (2010)