Tags
Language
Tags

The Sun and Richard Lippold (1966)

Posted By: Tutorial
SD / DVDRip IMDb
The Sun and Richard Lippold (1966)

The Sun and Richard Lippold (1966)
DVDRip | 688 x 534 | .MKV/AVC @ 1921 Kbps | 28 min 0 s | 404 MB
Audio: English AAC 96.0 Kbps, 1 channel | Subs: None
Genre: Documentary

Documentary examining the work of sculptor Richard Lippold, particular his sculpture of the sun at the Metropolitan Museum of Art.

General
Unique ID : 241491481347676033934463608568737512177 (0xB5AD914943F4B80DABB960EBBBE53AF1)
Complete name : the.sun.and.richard.lippold.1966.mkv
Format : Matroska
Format version : Version 4 / Version 2
File size : 404 MiB
Duration : 28 min 0 s
Overall bit rate : 2 018 kb/s
Encoded date : UTC 2021-11-25 19:54:29
Writing application : mkvmerge v8.5.1 ('Where you lead I will follow') 64bit
Writing library : libebml v1.3.3 + libmatroska v1.4.4

Video
ID : 1
Format : AVC
Format/Info : Advanced Video Codec
Format profile : High@L3.1
Format settings : CABAC / 12 Ref Frames
Format settings, CABAC : Yes
Format settings, RefFrames : 12 frames
Codec ID : V_MPEG4/ISO/AVC
Duration : 28 min 0 s
Bit rate : 1 921 kb/s
Width : 688 pixels
Height : 534 pixels
Display aspect ratio : 1.288
Frame rate mode : Constant
Frame rate : 25.000 FPS
Color space : YUV
Chroma subsampling : 4:2:0
Bit depth : 8 bits
Scan type : Progressive
Bits/(Pixel*Frame) : 0.209
Stream size : 385 MiB (95%)
Writing library : x264 core 164 r3075 66a5bc1
Encoding settings : cabac=1 / ref=12 / deblock=1:-3:-3 / analyse=0x3:0x133 / me=umh / subme=10 / psy=1 / psy_rd=1.00:0.15 / mixed_ref=1 / me_range=24 / chroma_me=1 / trellis=2 / 8x8dct=1 / cqm=0 / deadzone=21,11 / fast_pskip=1 / chroma_qp_offset=-3 / threads=17 / lookahead_threads=2 / sliced_threads=0 / nr=0 / decimate=1 / interlaced=0 / bluray_compat=0 / constrained_intra=0 / bframes=8 / b_pyramid=2 / b_adapt=2 / b_bias=0 / direct=3 / weightb=1 / open_gop=0 / weightp=2 / keyint=250 / keyint_min=25 / scenecut=40 / intra_refresh=0 / rc_lookahead=60 / rc=crf / mbtree=1 / crf=23.0 / qcomp=0.60 / qpmin=0 / qpmax=69 / qpstep=4 / ip_ratio=1.40 / aq=1:0.50
Language : English
Default : Yes
Forced : No

Audio
ID : 2
Format : AAC
Format/Info : Advanced Audio Codec
Format profile : LC
Codec ID : A_AAC-2
Duration : 28 min 0 s
Bit rate : 96.0 kb/s
Channel(s) : 1 channel
Channel positions : Front: C
Sampling rate : 48.0 kHz
Frame rate : 46.875 FPS (1024 SPF)
Compression mode : Lossy
Delay relative to video : 9 ms
Stream size : 18.9 MiB (5%)
Language : English
Default : Yes
Forced : No

Menu
00:00:00.000 : en:Chapter 01
00:09:29.920 : en:Chapter 02
00:19:43.920 : en:Chapter 03
Screenshots

The Sun and Richard Lippold (1966)

Welcome to my blog - daily update!