The Blue Lagoon (1980)

Posted By: a_l_chemist
The Blue Lagoon (1980)

The Blue Lagoon (1980)
DVDRip | AVI | XviD | 704x384, 25.000 fps, 1874 kbps | 01:40:34 | 1,53 GB
English: AC3, 2ch, 192 kbps | Subs: English (srt)
Genre: Adventure | Drama | Romance

The Blue Lagoon is a 1980 American romance and adventure film directed by Randal Kleiser. The screenplay by Douglas Day Stewart was based on the novel The Blue Lagoon by Henry De Vere Stacpoole. The film stars Brooke Shields and Christopher Atkins. The original music score was composed by Basil Poledouris.

The Blue Lagoon (1980)

Plot: In the Victorian period, two young cousins, Richard and Emmeline Lestrange, and a galley cook, Paddy Button (Leo McKern) survive a shipwreck in the South Pacific and reach a lush tropical island. Paddy cares for the small children and forbids them by "law" from going to the other side of the island, as he found evidence of bloody human sacrifices. He tells them the bogeyman lives there. He also warns them against eating a certain scarlet berry that Emmeline finds. Paddy soon dies after a drunken binge. Now alone, the children go to another part of the island and rebuild their home. They survive solely on their resourcefulness, and the bounty of their remote paradise. Years pass and they both grow into tall, strong and beautiful teenagers. They live in their hut, spending their days together fishing, swimming, and diving for pearls. Richard and Emmeline (now portrayed by Christopher Atkins and Brooke Shields) begin to fall in love, although this is emotionally stressful for them because of their lack of education on human sexuality, and are unable to express their physical attraction for one another.

The Blue Lagoon (1980)

Emmeline is frightened after she begins her first menstrual period, and is nervous when Richard wants to inspect her for a cut. Richard himself has many questions about what is happening to them, but has no means of getting answers. He wishes to hold and kiss her, but when she rejects him he goes off and masturbates. Emmeline, ever curious, goes to the other side of the island and discovers an impressive, Moai-like idol there. Instinctively recognizing that this is a holy place, she prays. Later she tells Richard that she thinks Paddy was wrong and the "bogeyman", who bleeds like Jesus, is actually God. However, Richard berates her for disobeying the "law". Sometime later, their relationship suffers a major blow when a ship appears for the first time in years. Richard's desire to leave comes into conflict with Emmeline's desire to stay, and she does not light the signal fire. As a result, the ship passes by without noticing them. Richard's fury leads him to kick her out of their hut. They make up for this fight after Emmeline is nearly killed upon stepping on a stonefish and Richard admits to his fear of losing her.
–from wikipedia
…..IMDb
The Blue Lagoon (1980)

The Blue Lagoon (1980)

The Blue Lagoon (1980)

The Blue Lagoon (1980)

The Blue Lagoon (1980)

General
File name : The Blue Lagoon.avi
Format : AVI
Format/Info : Audio Video Interleave
File size : 1.46 GiB
Duration : 1h 40mn
Overall bit rate : 2 075 Kbps
Movie name : The Blue Lagoon
Writing application : VirtualDubMod 1.5.10.2 (build 2540/release)
Writing library : VirtualDubMod build 2540/release

Video
ID : 0
Format : MPEG-4 Visual
Format profile : Advanced Simple@L5
Format settings, BVOP : 1
Format settings, QPel : No
Format settings, GMC : No warppoints
Format settings, Matrix : Custom
Codec ID : XVID
Codec ID/Hint : XviD
Duration : 1h 40mn
Bit rate : 1 874 Kbps
Width : 704 pixels
Height : 384 pixels
Display aspect ratio : 16:9
Frame rate : 25.000 fps
Color space : YUV
Chroma subsampling : 4:2:0
Bit depth : 8 bits
Scan type : Progressive
Compression mode : Lossy
Bits/(Pixel*Frame) : 0.277
Stream size : 1.32 GiB (90%)
Writing library : XviD 64

Audio
ID : 1
Format : AC-3
Format/Info : Audio Coding 3
Mode extension : CM (complete main)
Codec ID : 2000
Duration : 1h 40mn
Bit rate mode : Constant
Bit rate : 192 Kbps
Channel(s) : 2 channels
Channel positions : Front: L R
Sampling rate : 48.0 KHz
Bit depth : 16 bits
Compression mode : Lossy
Stream size : 138 MiB (9%)
Alignment : Split accross interleaves
Interleave, duration : 40 ms (1.00 video frame)
Interleave, preload duration : 500 ms
Title : English

My blog on AvaxHome

.: No Mirrors Please :.