Tags
Language
Tags

The Whistleblower (2010)

Posted By: a_l_chemist
The Whistleblower (2010)

The Whistleblower (2010)
DVDRip | AVI | XviD | 592x320, 728 kbps | English: MP3, 2ch, 128 kbps | 01:52:21 | 723 MB
Genre: Drama | Thriller

The Whistleblower is a 2010 drama thriller film directed by Larysa Kondracki and starring Rachel Weisz, Vanessa Redgrave, Benedict Cumberbatch and Monica Bellucci.

Plot: Inspired by real events, writer/director Larysa Kondracki's intense docudrama tells the tale of an American policewoman who uncovers evidence of human trafficking while assisting a U.N. peacekeeping mission in Bosnia. Nebraska cop Kathy Bolkovac (Rache Weisz) is caught in the middle of a vicious custody battle with her ex-husband when she seizes the opportunity to make a quick $100,000 tax free by spending six months in Bosnia as a U.N. peacekeeper. Shortly after Kathy arrives in Bosnia, Human Rights Commission head Madeline Rees (Vanessa Redgrave) promotes her to the U.N.'s Gender Office, where she begins studying sexual assault cases. But when Kathy discovers that her fellow peacekeepers are involved in a human trafficking ring, the ensuing controversy makes her the target of some very powerful - and incredibly ruthless - people.
–from wikipedia
…..IMDb | Rovi
The Whistleblower (2010)

The Whistleblower (2010)

The Whistleblower (2010)

The Whistleblower (2010)

The Whistleblower (2010)

General
Complete name : E:\Movies\The Whistleblower\The Whistleblower.avi
Format : AVI
Format/Info : Audio Video Interleave
File size : 695 MiB
Duration : 1h 52mn
Overall bit rate : 865 Kbps
Writing application : VirtualDubMod 1.5.10.2 (build 2542/release)
Writing library : VirtualDubMod build 2542/release

Video
ID : 0
Format : MPEG-4 Visual
Format profile : Advanced Simple@L5
Format settings, BVOP : 2
Format settings, QPel : No
Format settings, GMC : No warppoints
Format settings, Matrix : Default (H.263)
Muxing mode : Packed bitstream
Codec ID : XVID
Codec ID/Hint : XviD
Duration : 1h 52mn
Bit rate : 728 Kbps
Width : 592 pixels
Height : 320 pixels
Display aspect ratio : 1.850
Frame rate : 23.976 fps
Color space : YUV
Chroma subsampling : 4:2:0
Bit depth : 8 bits
Scan type : Progressive
Compression mode : Lossy
Bits/(Pixel*Frame) : 0.160
Stream size : 585 MiB (84%)
Writing library : XviD 1.2.1 (UTC 2008-12-04)

Audio
ID : 1
Format : MPEG Audio
Format version : Version 1
Format profile : Layer 3
Mode : Joint stereo
Mode extension : MS Stereo
Codec ID : 55
Codec ID/Hint : MP3
Duration : 1h 51mn
Bit rate mode : Constant
Bit rate : 128 Kbps
Channel(s) : 2 channels
Sampling rate : 48.0 KHz
Compression mode : Lossy
Stream size : 102 MiB (15%)
Alignment : Aligned on interleaves
Interleave, duration : 42 ms (1.01 video frame)
Interleave, preload duration : 504 ms
Writing library : LAME3.97

Download:

Filesonic
List of links

Wupload
List of links

Fileserve
List of links

Interchangeable links

My blog on AvaxHome

.: No Mirrors Please :.