Tags
Language
Tags

Tom y Jerry: El dragón desaparecido (2014)

Posted By: Coda
Tom y Jerry: El dragón desaparecido (2014)

Tom y Jerry: El dragón desaparecido (2014)
DVD-Rip | AVI | XviD @ 1393 kbps | 720x404 | 23.976fps | Spanish AC-3 @ 384kbps | 57 minutos | 724 MB
Género: Animación, Comedia, Familiar

Resumen: Tom y Jerry viven con una bruja joven que intenta encajar en un sociedad que la rechaza, pero las travesuras de Tom y Jerry no están ayudando mucho, por tal razón se embarcar en una nueva aventura, donde tendrán que rescatar un bebe dragón de una poderosa bruja malvada y regresarlo con su madre.

General
Complete name : Tom.y.Jerry.El.dragon.desaparecido.(2014).(Spanish).DVD-Rip.avi
Format : AVI
Format/Info : Audio Video Interleave
File size : 724 MiB
Duration : 56 min
Overall bit rate : 1 786 kb/s
Writing application : VirtualDubMod 1.5.10.2 (build 2540/release)
Writing library : VirtualDubMod build 2540/release

Video
ID : 0
Format : MPEG-4 Visual
Format profile : Advanced Simple@L5
Format settings, BVOP : 2
Format settings, QPel : No
Format settings, GMC : No warppoints
Format settings, Matrix : Default (H.263)
Muxing mode : Packed bitstream
Codec ID : XVID
Codec ID/Hint : XviD
Duration : 56 min
Bit rate : 1 393 kb/s
Width : 720 pixels
Height : 404 pixels
Display aspect ratio : 16:9
Frame rate : 23.976 (23976/1000) FPS
Color space : YUV
Chroma subsampling : 4:2:0
Bit depth : 8 bits
Scan type : Progressive
Compression mode : Lossy
Bits/(Pixel*Frame) : 0.200
Stream size : 565 MiB (78%)
Writing library : XviD 1.2.1 (UTC 2008-12-04)

Audio
ID : 1
Format : AC-3
Format/Info : Audio Coding 3
Mode extension : CM (complete main)
Format settings, Endianness : Big
Codec ID : 2000
Duration : 56 min
Bit rate mode : Constant
Bit rate : 384 kb/s
Channel(s) : 6 channels
Channel positions : Front: L C R, Side: L R, LFE
Sampling rate : 48.0 kHz
Frame rate : 31.250 FPS (1536 spf)
Compression mode : Lossy
Stream size : 156 MiB (21%)
Alignment : Split accross interleaves
Interleave, duration : 42 ms (1.00 video frame)
Interleave, preload duration : 500 ms


Tom y Jerry: El dragón desaparecido (2014)

Tom y Jerry: El dragón desaparecido (2014)

Tom y Jerry: El dragón desaparecido (2014)