Tags
Language
Tags

Suburra: la serie S01 (2017)

Posted By: JohnSmith
Suburra: la serie S01 (2017)

Suburra: la serie S01 (2017)
WEB-DL 720p | MKV / AVC@~2000 kb/s | 1280x720 | 10x~1h | 10x~1 GB
English (dubbed): AC3, 384 kb/s (6 ch) | Subtitles: English, Italian
WEB-DL 1080p | MKV / AVC@~4000 kb/s | 1920x1080 | 10x~1h | 10x~2 GB
English (dubbed): AC3, 384 kb/s (6 ch) | Subtitles: English, Italian
Genre: Action | Crime

Church. Politics. Crime. Three guys, hungry for money and power, fight to get their piece of Rome.




General
Unique ID : 138751239134466636304751649788527116319 (0x68628441AA9BBCD8590F29842EE8001F)
Complete name : C:\suburra.s01e01.720p.web.x264-strife.mkv
Format : Matroska
Format version : Version 4 / Version 2
File size : 1.17 GiB
Duration : 1 h 2 min
Overall bit rate mode : Variable
Overall bit rate : 2 665 kb/s
Encoded date : UTC 2017-10-06 07:12:26
Writing application : mkvmerge v7.3.0 ('Nouages') 64bit built on Oct 23 2014 13:14:01
Writing library : libebml v1.3.0 + libmatroska v1.4.1

Video
ID : 1
Format : AVC
Format/Info : Advanced Video Codec
Format profile : Main@L3.1
Format settings, CABAC : Yes
Format settings, ReFrames : 3 frames
Codec ID : V_MPEG4/ISO/AVC
Duration : 1 h 2 min
Bit rate mode : Variable
Bit rate : 2 370 kb/s
Maximum bit rate : 3 555 kb/s
Width : 1 280 pixels
Height : 720 pixels
Display aspect ratio : 16:9
Frame rate mode : Constant
Frame rate : 25.000 FPS
Color space : YUV
Chroma subsampling : 4:2:0
Bit depth : 8 bits
Scan type : Progressive
Bits/(Pixel*Frame) : 0.103
Stream size : 1 022 MiB (86%)
Writing library : x264 core 118
Encoding settings : cabac=1 / ref=3 / deblock=1:0:0 / analyse=0x1:0x111 / me=umh / subme=10 / psy=1 / psy_rd=1.00:0.00 / mixed_ref=1 / me_range=24 / chroma_me=1 / trellis=2 / 8x8dct=0 / cqm=0 / deadzone=21,11 / fast_pskip=1 / chroma_qp_offset=-2 / threads=8 / sliced_threads=0 / nr=0 / decimate=1 / interlaced=0 / bluray_compat=0 / constrained_intra=0 / bframes=2 / b_pyramid=0 / b_adapt=2 / b_bias=0 / direct=3 / weightb=1 / open_gop=0 / weightp=2 / keyint=50 / keyint_min=26 / scenecut=0 / intra_refresh=0 / rc_lookahead=0 / rc=2pass / mbtree=1 / bitrate=2370 / ratetol=1.0 / qcomp=0.50 / qpmin=6 / qpmax=51 / qpstep=4 / cplxblur=20.0 / qblur=0.5 / vbv_maxrate=3555 / vbv_bufsize=4740 / nal_hrd=vbr / ip_ratio=1.40 / aq=1:1.00
Default : Yes
Forced : No

Audio
ID : 2
Format : AC-3
Format/Info : Audio Coding 3
Format settings, Endianness : Big
Codec ID : A_AC3
Duration : 1 h 2 min
Bit rate mode : Constant
Bit rate : 384 kb/s
Channel(s) : 6 channels
Channel positions : Front: L C R, Side: L R, LFE
Sampling rate : 48.0 kHz
Frame rate : 31.250 FPS (1536 spf)
Bit depth : 16 bits
Compression mode : Lossy
Stream size : 172 MiB (14%)
Language : Italian
Service kind : Complete Main
Default : Yes
Forced : No

Text #1
ID : 3
Format : UTF-8
Codec ID : S_TEXT/UTF8
Codec ID/Info : UTF-8 Plain Text
Duration : 58 min 39 s
Bit rate : 1 b/s
Count of elements : 36
Stream size : 713 Bytes (0%)
Title : Forced
Language : English
Default : Yes
Forced : Yes

Text #2
ID : 4
Format : UTF-8
Codec ID : S_TEXT/UTF8
Codec ID/Info : UTF-8 Plain Text
Duration : 58 min 38 s
Bit rate : 46 b/s
Count of elements : 602
Stream size : 19.9 KiB (0%)
Language : English
Default : No
Forced : No

Text #3
ID : 5
Format : UTF-8
Codec ID : S_TEXT/UTF8
Codec ID/Info : UTF-8 Plain Text
Duration : 1 h 1 min
Bit rate : 76 b/s
Count of elements : 601
Stream size : 34.5 KiB (0%)
Language : Arabic
Default : No
Forced : No

Text #4
ID : 6
Format : UTF-8
Codec ID : S_TEXT/UTF8
Codec ID/Info : UTF-8 Plain Text
Duration : 58 min 40 s
Bit rate : 53 b/s
Count of elements : 604
Stream size : 23.1 KiB (0%)
Language : French
Default : No
Forced : No

Text #5
ID : 7
Format : UTF-8
Codec ID : S_TEXT/UTF8
Codec ID/Info : UTF-8 Plain Text
Duration : 58 min 38 s
Bit rate : 57 b/s
Count of elements : 727
Stream size : 24.9 KiB (0%)
Language : Italian
Default : No
Forced : No

Text #6
ID : 8
Format : UTF-8
Codec ID : S_TEXT/UTF8
Codec ID/Info : UTF-8 Plain Text
Duration : 58 min 40 s
Bit rate : 43 b/s
Count of elements : 574
Stream size : 18.7 KiB (0%)
Language : Polish
Default : No
Forced : No





General
Unique ID : 200758844575150186774689185431375984958 (0x9708BF3DCD86CEFABD156FDFDC22393E)
Complete name : A:\suburra.s01e01.1080p.web.x264-convoy.mkv
Format : Matroska
Format version : Version 4 / Version 2
File size : 2.03 GiB
Duration : 1 h 2 min
Overall bit rate mode : Variable
Overall bit rate : 4 633 kb/s
Encoded date : UTC 2017-10-06 07:04:36 / UTC 2017-09-28 09:49:44
Writing application : mkvmerge v11.0.0 ('Alive') 64bit
Writing library : libebml v1.3.4 + libmatroska v1.4.5 / Lavf58.0.0

Video
ID : 1
Format : AVC
Format/Info : Advanced Video Codec
Format profile : Main@L4
Format settings, CABAC : Yes
Format settings, ReFrames : 3 frames
Codec ID : V_MPEG4/ISO/AVC
Duration : 1 h 2 min
Bit rate mode : Variable
Bit rate : 4 157 kb/s
Nominal bit rate : 4 420 kb/s
Maximum bit rate : 6 630 kb/s
Width : 1 920 pixels
Height : 1 080 pixels
Display aspect ratio : 16:9
Frame rate mode : Constant
Frame rate : 25.000 FPS
Color space : YUV
Chroma subsampling : 4:2:0
Bit depth : 8 bits
Scan type : Progressive
Bits/(Pixel*Frame) : 0.080
Stream size : 1.82 GiB (90%)
Writing library : x264 core 118
Encoding settings : cabac=1 / ref=3 / deblock=1:0:0 / analyse=0x1:0x111 / me=umh / subme=10 / psy=1 / psy_rd=1.00:0.00 / mixed_ref=1 / me_range=24 / chroma_me=1 / trellis=2 / 8x8dct=0 / cqm=0 / deadzone=21,11 / fast_pskip=1 / chroma_qp_offset=-2 / threads=8 / sliced_threads=0 / nr=0 / decimate=1 / interlaced=0 / bluray_compat=0 / constrained_intra=0 / bframes=2 / b_pyramid=0 / b_adapt=2 / b_bias=0 / direct=3 / weightb=1 / open_gop=0 / weightp=2 / keyint=50 / keyint_min=26 / scenecut=0 / intra_refresh=0 / rc_lookahead=0 / rc=2pass / mbtree=1 / bitrate=4420 / ratetol=1.0 / qcomp=0.50 / qpmin=6 / qpmax=51 / qpstep=4 / cplxblur=20.0 / qblur=0.5 / vbv_maxrate=6630 / vbv_bufsize=8840 / nal_hrd=vbr / ip_ratio=1.40 / aq=1:1.00
Default : Yes
Forced : No
Statistics Tags Issue : mkvmerge v11.0.0 ('Alive') 64bit 2017-10-06 07:04:36 / mkvmerge v11.0.0 ('Alive') 64bit 2017-10-06 07:04:36 / UTC 2017-09-28 09:49:44
FromStats_BitRate : 4247360
FromStats_Duration : 01:02:40.280000000
FromStats_FrameCount : 94007
FromStats_StreamSize : 1996408079

Audio
ID : 2
Format : AC-3
Format/Info : Audio Coding 3
Format settings, Endianness : Big
Codec ID : A_AC3
Duration : 1 h 2 min
Bit rate mode : Constant
Bit rate : 384 kb/s
Channel(s) : 6 channels
Channel positions : Front: L C R, Side: L R, LFE
Sampling rate : 48.0 kHz
Frame rate : 31.250 FPS (1536 spf)
Bit depth : 16 bits
Compression mode : Lossy
Stream size : 172 MiB (8%)
Language : English
Service kind : Complete Main
Default : Yes
Forced : No
Encoded date : UTC 2017-09-28 09:49:44
HANDLER_NAME : Audio Media Handler
Statistics Tags Issue : mkvmerge v11.0.0 ('Alive') 64bit 2017-10-06 07:04:36 / mkvmerge v11.0.0 ('Alive') 64bit 2017-10-06 07:04:36 / UTC 2017-09-28 09:49:44
FromStats_BitRate : 384000
FromStats_Duration : 01:02:40.544000000
FromStats_FrameCount : 117517
FromStats_StreamSize : 180506112

Text #1
ID : 3
Format : UTF-8
Codec ID : S_TEXT/UTF8
Codec ID/Info : UTF-8 Plain Text
Title : English
Language : English
Default : No
Forced : No
Statistics Tags Issue : mkvmerge v11.0.0 ('Alive') 64bit 2017-10-06 07:04:36 / mkvmerge v11.0.0 ('Alive') 64bit 2017-10-06 07:04:36 / UTC 2017-09-28 09:49:44
FromStats_BitRate : 46
FromStats_Duration : 00:58:38.280000000
FromStats_FrameCount : 602
FromStats_StreamSize : 20361

Text #2
ID : 4
Format : UTF-8
Codec ID : S_TEXT/UTF8
Codec ID/Info : UTF-8 Plain Text
Title : Forced
Language : English
Default : Yes
Forced : Yes
Statistics Tags Issue : mkvmerge v11.0.0 ('Alive') 64bit 2017-10-06 07:04:36 / mkvmerge v11.0.0 ('Alive') 64bit 2017-10-06 07:04:36 / UTC 2017-09-28 09:49:44
FromStats_BitRate : 1
FromStats_Duration : 00:58:39.120000000
FromStats_FrameCount : 36
FromStats_StreamSize : 713

Text #3
ID : 5
Format : UTF-8
Codec ID : S_TEXT/UTF8
Codec ID/Info : UTF-8 Plain Text
Title : Italian
Language : Italian
Default : No
Forced : No
Statistics Tags Issue : mkvmerge v11.0.0 ('Alive') 64bit 2017-10-06 07:04:36 / mkvmerge v11.0.0 ('Alive') 64bit 2017-10-06 07:04:36 / UTC 2017-09-28 09:49:44
FromStats_BitRate : 57
FromStats_Duration : 00:58:38.280000000
FromStats_FrameCount : 727
FromStats_StreamSize : 25451

Text #4
ID : 6
Format : UTF-8
Codec ID : S_TEXT/UTF8
Codec ID/Info : UTF-8 Plain Text
Title : Spanish
Language : Spanish
Default : No
Forced : No
Statistics Tags Issue : mkvmerge v11.0.0 ('Alive') 64bit 2017-10-06 07:04:36 / mkvmerge v11.0.0 ('Alive') 64bit 2017-10-06 07:04:36 / UTC 2017-09-28 09:49:44
FromStats_BitRate : 49
FromStats_Duration : 00:58:40.480000000
FromStats_FrameCount : 603
FromStats_StreamSize : 21650

Text #5
ID : 7
Format : UTF-8
Codec ID : S_TEXT/UTF8
Codec ID/Info : UTF-8 Plain Text
Title : French
Language : French
Default : No
Forced : No
Statistics Tags Issue : mkvmerge v11.0.0 ('Alive') 64bit 2017-10-06 07:04:36 / mkvmerge v11.0.0 ('Alive') 64bit 2017-10-06 07:04:36 / UTC 2017-09-28 09:49:44
FromStats_BitRate : 53
FromStats_Duration : 00:58:40.480000000
FromStats_FrameCount : 604
FromStats_StreamSize : 23653

Text #6
ID : 8
Format : UTF-8
Codec ID : S_TEXT/UTF8
Codec ID/Info : UTF-8 Plain Text
Title : German
Language : German
Default : No
Forced : No
Statistics Tags Issue : mkvmerge v11.0.0 ('Alive') 64bit 2017-10-06 07:04:36 / mkvmerge v11.0.0 ('Alive') 64bit 2017-10-06 07:04:36 / UTC 2017-09-28 09:49:44
FromStats_BitRate : 51
FromStats_Duration : 00:58:38.280000000
FromStats_FrameCount : 624
FromStats_StreamSize : 22866




Screenshots WEB-DL 720p

Suburra: la serie S01 (2017)

Suburra: la serie S01 (2017)

Suburra: la serie S01 (2017)


Screenshots WEB-DL 1080p

Suburra: la serie S01 (2017)

Suburra: la serie S01 (2017)

Suburra: la serie S01 (2017)