(Fr3) Vie et mort de Robert Boulin (2013)

Posted By: Morocco
(Fr3) Vie et mort de Robert Boulin (2013)

(Fr3) Vie et mort de Robert Boulin (2013)
TNT-Rip by Clo2 | French | 1h02min | 640 x 368 | 25.000 fps | MP4 | AVC High@L4.0 @ 800 Kbps | MPEG Audio @ 112 Kbps | 403 MB
Genre : Documentaire

30 octobre 1979. Un cadavre flotte au milieu d’un étang de la forêt de Rambouillet. Pas n’importe lequel puisqu’il s’agit du ministre du Travail en exercice à l’époque, Robert Boulin.
Dans la lutte pour le pouvoir et la partie d’échecs qui opposent Valéry Giscard d’Estaing à Jacques Chirac à la fin des années 1970, le ministre du Travail Robert Boulin est un pion politique. Jeune résistant, gaulliste de la première heure, Robert Boulin est devenu, au fil d’une carrière politique à la longévité remarquable, un homme qui rassure l’opinion. Pourtant, ni Giscard ni Chirac n’hésiteront à sacrifier le pion Boulin lorsqu’il s’agira de protéger leur stratégie présidentielle.

Valéry Giscard d’Estaing, président en fin de règne, utilise Boulin, le gaulliste, pour déstabiliser Jacques Chirac en pleine conquête du pouvoir et son nouveau parti en pleine ascension, le RPR. Jacques Chirac répond en livrant Boulin, le "premier-ministrable" à la presse avec une affaire immobilière douteuse : "le terrain de Ramatuelle".

Cerné et attaqué de toutes parts, Robert Boulin finit par menacer à demi-mots de révéler quelques secrets compromettants pour la classe politique et surtout pour le parti de Jacques Chirac, le RPR, avec des dossiers de financement occulte. Huit jours plus tard, le 30 octobre 1979, son cadavre est retrouvé, flottant dans les eaux d’un étang de la forêt de Rambouillet. Lâché par Giscard, sacrifié par Chirac ?

Depuis ce jour d’octobre, la lumière n’a jamais été faite sur "l’affaire Boulin". Mais sa famille, son épouse, ses enfants, et trois générations de journalistes, ont mis en doute la version officielle qui voudrait que Robert Boulin se soit suicidé. Trente ans ont passé, et l’opinion publique est maintenant convaincue que la famille Boulin est victime d’un déni de justice. Robert Boulin a-t-il été assassiné, victime d’un crime d’État ? Pour la première fois, "Vie et mort de Robert Boulin" s’attache à appréhender la mort de ce ministre de la République, en comprenant sa vie politique et sa vie personnelle.

Pour la première fois depuis trente ans, un film sur Robert Boulin ose ne pas se substituer à la Justice, ose ne pas avoir de thèse sur son assassinat, ose ne pas résoudre le "mystère" de sa mort. Pour la première fois, le film "Vie et mort de Robert Boulin" est raconté par ceux qui l’ont connu le mieux, Robert Boulin lui-même, et son fils.

Format : MPEG-4
Format profile : Base Media / Version 2
Codec ID : mp42
File size : 403 MiB
Duration : 1h 2mn
Overall bit rate mode : Variable
Overall bit rate : 907 Kbps
Encoded date : UTC 2013-01-29 01:54:22
Tagged date : UTC 2013-01-29 01:54:26

Video
ID : 1
Format : AVC
Format/Info : Advanced Video Codec
Format profile : High@L4.0
Format settings, CABAC : Yes
Format settings, ReFrames : 4 frames
Codec ID : avc1
Codec ID/Info : Advanced Video Coding
Duration : 1h 2mn
Bit rate mode : Variable
Bit rate : 800 Kbps
Width : 640 pixels
Height : 368 pixels
Display aspect ratio : 1.739
Frame rate mode : Variable
Frame rate : 25.000 fps
Minimum frame rate : 24.718 fps
Maximum frame rate : 25.042 fps
Color space : YUV
Chroma subsampling : 4:2:0
Bit depth : 8 bits
Scan type : Progressive
Bits/(Pixel*Frame) : 0.136
Stream size : 355 MiB (88%)
Writing library : x264 core 129 r2230 1cffe9f
Encoding settings : cabac=1 / ref=3 / deblock=1:0:0 / analyse=0x3:0x113 / me=hex / subme=7 / psy=1 / psy_rd=1.00:0.00 / mixed_ref=1 / me_range=16 / chroma_me=1 / trellis=1 / 8x8dct=1 / cqm=0 / deadzone=21,11 / fast_pskip=1 / chroma_qp_offset=-2 / threads=12 / lookahead_threads=2 / sliced_threads=0 / nr=0 / decimate=1 / interlaced=0 / bluray_compat=0 / constrained_intra=0 / bframes=3 / b_pyramid=2 / b_adapt=1 / b_bias=0 / direct=1 / weightb=1 / open_gop=0 / weightp=2 / keyint=250 / keyint_min=25 / scenecut=40 / intra_refresh=0 / rc_lookahead=40 / rc=2pass / mbtree=1 / bitrate=800 / ratetol=1.0 / qcomp=0.60 / qpmin=0 / qpmax=69 / qpstep=4 / cplxblur=20.0 / qblur=0.5 / ip_ratio=1.40 / aq=1:1.00
Encoded date : UTC 2013-01-29 01:54:22
Tagged date : UTC 2013-01-29 01:54:26

Audio
ID : 2
Format : MPEG Audio
Format version : Version 1
Format profile : Layer 3
Mode : Joint stereo
Mode extension : MS Stereo
Codec ID : 69
Duration : 1h 2mn
Bit rate mode : Variable
Bit rate : 102 Kbps
Nominal bit rate : 112 Kbps
Channel(s) : 2 channels
Sampling rate : 48.0 KHz
Compression mode : Lossy
Stream size : 45.4 MiB (11%)
Writing library : LAME3.98r
Encoding settings : -m j -V 4 -q 2 -lowpass 15.6 –abr 112
Encoded date : UTC 2013-01-29 01:54:22
Tagged date : UTC 2013-01-29 01:54:26


(Fr3) Vie et mort de Robert Boulin (2013)

(Fr3) Vie et mort de Robert Boulin (2013)

(Fr3) Vie et mort de Robert Boulin (2013)

(Fr3) Vie et mort de Robert Boulin (2013)

(Fr3) Vie et mort de Robert Boulin (2013)

No Pass ;)

Un merci ?