West of the Jordan River (2017)

Posted By: notbanned
SD / DVDRip IMDb
West of the Jordan River (2017)

West of the Jordan River (2017)
DVDRip | 720x406 | .MKV/AVC @ 1177 Kbps | 1 h 27 min | 815 MiB
Audio: עברית AAC 119 kbps, 2 channels | Subs: English
Genre: Documentary

Amos Gitai returns to the West Bank to better understand the efforts of the citizens, both Israelis and Palestinians, to try to overcome the consequences of the 50-year occupation. Interspersing footage of his interviews with Yitzhak Rabin from the 1990s with the contemporary interviews of everyday citizens.

General
Unique ID : 233276167044660188822631910137975601777 (0xAF7F5B04D2486C2E97FAC059D498FA71)
Complete name : west.of.the.jordan.river.2017.limited.dvdrip.mkv
Format : Matroska
Format version : Version 4 / Version 2
File size : 815 MiB
Duration : 1 h 27 min
Overall bit rate : 1 299 kb/s

Video
ID : 1
Format : AVC
Format/Info : Advanced Video Codec
Format profile : High@L3.1
Format settings, CABAC : Yes
Format settings, ReFrames : 5 frames
Codec ID : V_MPEG4/ISO/AVC
Duration : 1 h 27 min
Bit rate : 1 177 kb/s
Width : 720 pixels
Height : 406 pixels
Display aspect ratio : 16:9
Frame rate mode : Constant
Frame rate : 23.976 (24000/1001) FPS
Color space : YUV
Chroma subsampling : 4:2:0
Bit depth : 8 bits
Scan type : Progressive
Bits/(Pixel*Frame) : 0.168
Stream size : 739 MiB (91%)
Encoding settings : cabac=1 / ref=5 / deblock=1:-3:-3 / analyse=0x3:0x113 / me=umh / subme=8 / psy=1 / psy_rd=0.80:0.00 / mixed_ref=1 / me_range=16 / chroma_me=1 / trellis=2 / 8x8dct=1 / cqm=0 / deadzone=21,11 / fast_pskip=1 / chroma_qp_offset=-2 / threads=12 / lookahead_threads=2 / sliced_threads=0 / nr=0 / decimate=1 / interlaced=0 / bluray_compat=0 / constrained_intra=0 / bframes=3 / b_pyramid=2 / b_adapt=1 / b_bias=0 / direct=3 / weightb=1 / open_gop=0 / weightp=2 / keyint=240 / keyint_min=23 / scenecut=40 / intra_refresh=0 / rc_lookahead=50 / rc=crf / mbtree=1 / crf=19.0 / qcomp=0.60 / qpmin=0 / qpmax=69 / qpstep=4 / ip_ratio=1.40 / aq=1:1.00
Language : English
Default : Yes
Forced : No

Audio
ID : 2
Format : AAC
Format/Info : Advanced Audio Codec
Format profile : LC
Codec ID : A_AAC
Duration : 1 h 27 min
Bit rate : 119 kb/s
Channel(s) : 2 channels
Channel positions : Front: L R
Sampling rate : 48.0 kHz
Frame rate : 46.875 FPS (1024 spf)
Compression mode : Lossy
Delay relative to video : 9 ms
Stream size : 74.9 MiB (9%)
Language : Hebrew
Default : Yes
Forced : No

Text
ID : 3
Format : UTF-8
Codec ID : S_TEXT/UTF8
Codec ID/Info : UTF-8 Plain Text
Duration : 1 h 22 min
Bit rate : 58 b/s
Count of elements : 1063
Stream size : 35.5 KiB (0%)
Language : English
Default : Yes
Forced : Yes

Menu
00:00:00.000 : en:Chapter 01
00:07:30.367 : en:Chapter 02
00:16:36.567 : en:Chapter 03
00:26:11.668 : en:Chapter 04
00:39:35.169 : en:Chapter 05
00:46:42.803 : en:Chapter 06
01:00:11.038 : en:Chapter 07
01:05:38.071 : en:Chapter 08
01:13:20.439 : en:Chapter 09
01:21:12.439 : en:Chapter 10
01:27:37.440 : en:Chapter 11


Screenshots:

West of the Jordan River (2017)

West of the Jordan River (2017)

West of the Jordan River (2017)

West of the Jordan River (2017)