Tags
Language
Tags

What the Health (2017)

Posted By: ParRus
What the Health (2017)

What the Health (2017)
PDTV | English | MP4 | 960 x 540 | AVC ~931 kbps | 23.976 fps
AAC | 256 Kbps | 48.0 KHz | 2 channels | Subs: English | 01:31:58 | 784 MB
Genre: Documentary

An intrepid filmmaker on a journey of discovery as he uncovers possibly the largest health secret of our time and the collusion between industry, government, pharmaceutical and health organizations keeping this information from us.
What the Health is a ground breaking feature length documentary from the award-winning filmmakers of Cowspiracy, that follows the exciting journey of intrepid filmmaker, Kip Andersen, as he uncovers the impacts of highly processed industrial animal foods on our personal health and greater community, and explores why leading health organizations continue to promote the industry despite countless medical studies and research showing deleterious effects of these products on our health.

Directors: Kip Andersen, Keegan Kuhn
Release Date: 7 March 2017 (USA)
More Info: IMDB

also You can look my other last: Documentary-posts

General
Complete name : WHAT THE HEALTH.mp4
Format : MPEG-4
Format profile : Base Media / Version 2
Codec ID : mp42
File size : 784 MiB
Duration : 1h 31mn
Overall bit rate mode : Variable
Overall bit rate : 1 191 Kbps
Encoded date : UTC 2017-03-15 06:15:51
Tagged date : UTC 2017-03-15 06:15:51

Video
ID : 1
Format : AVC
Format/Info : Advanced Video Codec
Format profile : High@L3.1
Format settings, CABAC : Yes
Format settings, ReFrames : 8 frames
Codec ID : avc1
Codec ID/Info : Advanced Video Coding
Duration : 1h 31mn
Bit rate : 931 Kbps
Width : 960 pixels
Height : 540 pixels
Display aspect ratio : 16:9
Frame rate mode : Constant
Frame rate : 23.976 fps
Color space : YUV
Chroma subsampling : 4:2:0
Bit depth : 8 bits
Scan type : Progressive
Bits/(Pixel*Frame) : 0.075
Stream size : 613 MiB (78%)
Writing library : x264 core 148 r10 90a61ec
Encoding settings : cabac=1 / ref=8 / deblock=1:0:0 / analyse=0x3:0x133 / me=umh / subme=9 / psy=1 / psy_rd=1.00:0.00 / mixed_ref=1 / me_range=16 / chroma_me=1 / trellis=2 / 8x8dct=1 / cqm=0 / deadzone=21,11 / fast_pskip=1 / chroma_qp_offset=-2 / threads=17 / lookahead_threads=1 / sliced_threads=0 / nr=0 / decimate=1 / interlaced=0 / bluray_compat=0 / stitchable=1 / constrained_intra=0 / bframes=3 / b_pyramid=2 / b_adapt=2 / b_bias=0 / direct=3 / weightb=1 / open_gop=0 / weightp=2 / keyint=infinite / keyint_min=23 / scenecut=40 / intra_refresh=0 / rc_lookahead=60 / rc=crf / mbtree=1 / crf=20.0 / qcomp=0.60 / qpmin=5 / qpmax=69 / qpstep=4 / vbv_maxrate=1650 / vbv_bufsize=1800 / crf_max=0.0 / nal_hrd=none / filler=0 / ip_ratio=1.40 / aq=1:1.00
Encoded date : UTC 2017-03-15 06:15:51
Tagged date : UTC 2017-03-15 06:15:51
Color range : Limited
Color primaries : BT.601 NTSC
Transfer characteristics : BT.601
Matrix coefficients : BT.601

Audio
ID : 2
Format : AAC
Format/Info : Advanced Audio Codec
Format profile : LC
Codec ID : 40
Duration : 1h 31mn
Bit rate mode : Variable
Bit rate : 256 Kbps
Channel(s) : 2 channels
Channel positions : Front: L R
Sampling rate : 48.0 KHz
Compression mode : Lossy
Stream size : 168 MiB (21%)
Encoded date : UTC 2017-03-15 06:15:51
Tagged date : UTC 2017-03-15 06:15:51
Screenshots

What the Health (2017)

What the Health (2017)

What the Health (2017)

What the Health (2017)

What the Health (2017)

Exclusive eLearning Videos ParRus-blogadd to bookmarks

What the Health (2017)