Tags
Language
Tags

Wings Over Grand Canyon (2009)

Posted By: notbanned
720p (HD) / HDTV
Wings Over Grand Canyon (2009)

Wings Over Grand Canyon (2009)
HDTV | 1280x720 | .MKV/AVC @ 3670 Kbps | 39 min 30 s | 1.12 GiB
Audio: English AC3 384 kbps, 6 channels | Subs: English
Genre: Documentary

The Grandest Canyons in the world, and landscapes that amaze millions. Linking thsee landscapes into one, this story brings an entire region of the world into view for the first time. In one epic aerial journey, Wings Over Grand Canyon reveals high alpine forests, spectacular lakes and secret canyons never seen this way. Take this aerial adventure to experience Canyonlands National Park, Arches National Park, Glen Canyon National Recreation Area and Lake Powell, and Grand Canyon National Park.

General
Unique ID : 250535104036549434684673976522593494322 (0xBC7B4E4F5BCD7A51BCE9F4651F936532)
Complete name : wings.over.grand.canyon.2009.720p.mkv
Format : Matroska
Format version : Version 4 / Version 2
File size : 1.12 GiB
Duration : 39 min 30 s
Overall bit rate : 4 056 kb/s

Video
ID : 1
Format : AVC
Format/Info : Advanced Video Codec
Format profile : High@L4.1
Format settings, CABAC : Yes
Format settings, ReFrames : 5 frames
Codec ID : V_MPEG4/ISO/AVC
Duration : 39 min 30 s
Bit rate : 3 670 kb/s
Width : 1 280 pixels
Height : 720 pixels
Display aspect ratio : 16:9
Frame rate mode : Constant
Frame rate : 29.970 (30000/1001) FPS
Color space : YUV
Chroma subsampling : 4:2:0
Bit depth : 8 bits
Scan type : Progressive
Bits/(Pixel*Frame) : 0.133
Stream size : 1.01 GiB (90%)
Writing library : x264 core 157 r2935 545de2f
Encoding settings : cabac=1 / ref=5 / deblock=1:0:0 / analyse=0x3:0x113 / me=hex / subme=8 / psy=1 / psy_rd=1.00:0.00 / mixed_ref=1 / me_range=16 / chroma_me=1 / trellis=2 / 8x8dct=1 / cqm=0 / deadzone=21,11 / fast_pskip=1 / chroma_qp_offset=-2 / threads=12 / lookahead_threads=2 / sliced_threads=0 / nr=0 / decimate=1 / interlaced=0 / bluray_compat=0 / constrained_intra=0 / bframes=3 / b_pyramid=2 / b_adapt=1 / b_bias=0 / direct=3 / weightb=1 / open_gop=0 / weightp=2 / keyint=250 / keyint_min=25 / scenecut=40 / intra_refresh=0 / rc_lookahead=50 / rc=crf / mbtree=1 / crf=21.0 / qcomp=0.60 / qpmin=0 / qpmax=69 / qpstep=4 / ip_ratio=1.40 / aq=1:1.00
Default : Yes
Forced : No

Audio
ID : 2
Format : AC-3
Format/Info : Audio Coding 3
Format settings, Endianness : Big
Codec ID : A_AC3
Duration : 39 min 30 s
Bit rate mode : Constant
Bit rate : 384 kb/s
Channel(s) : 6 channels
Channel positions : Front: L C R, Side: L R, LFE
Sampling rate : 48.0 kHz
Frame rate : 31.250 FPS (1536 spf)
Bit depth : 16 bits
Compression mode : Lossy
Stream size : 109 MiB (9%)
Language : English
Service kind : Complete Main
Default : Yes
Forced : No

Text
ID : 3
Format : UTF-8
Codec ID : S_TEXT/UTF8
Codec ID/Info : UTF-8 Plain Text
Duration : 39 min 20 s
Bit rate : 215 b/s
Count of elements : 755
Stream size : 62.2 KiB (0%)
Language : English
Default : No
Forced : No


Screenshots:

Wings Over Grand Canyon (2009)

Wings Over Grand Canyon (2009)

Wings Over Grand Canyon (2009)

Wings Over Grand Canyon (2009)