Tags
Language
Tags

Young @ Heart (2008)

Posted By: Tavaz
720p (HD) / BDRip IMDb
Young @ Heart (2008)

Young @ Heart (2008)
BDRip | MKV | 1280x720 | English | H264 @ 4275 kbps | DTS @ 1509 kbps | 1 h 48 min | 4.37 GiB
Genre: Documentary

Documents the true story of the final weeks of rehearsal for the Young at Heart Chorus in Northampton, MA and many of whom must overcome health adversities to participate. Their music going against the stereotype of their age group. Although they have toured Europe and sang for royalty, this account focuses on preparing new songs for a concert in their home town.

f2b8a70858104b8883f62112960b2b99.mkv (4.4 GB)



General
Complete name : ./f2b8a70858104b8883f62112960b2b99.mkv
Format : Matroska
Format version : Version 2
File size : 4.37 GiB
Duration : 1 h 48 min
Overall bit rate : 5 784 kb/s
Writing application : mkvmerge v6.6.0 ('The Edge Of The In Between') built on Dec 1 2013 17:55:00
Writing library : libebml v1.3.0 + libmatroska v1.4.1

Video
ID : 1
Format : AVC
Format/Info : Advanced Video Codec
Format profile : High@L4.1
Format settings : CABAC / 5 Ref Frames
Format settings, CABAC : Yes
Format settings, RefFrames : 5 frames
Codec ID : V_MPEG4/ISO/AVC
Duration : 1 h 48 min
Bit rate : 4 275 kb/s
Width : 1 280 pixels
Height : 720 pixels
Display aspect ratio : 16:9
Frame rate mode : Constant
Frame rate : 24.000 FPS
Color space : YUV
Chroma subsampling : 4:2:0
Bit depth : 8 bits
Scan type : Progressive
Bits/(Pixel*Frame) : 0.193
Stream size : 3.14 GiB (72%)
Writing library : x264 core 155 r2901 7d0ff22
Encoding settings : cabac=1 / ref=5 / deblock=1:-2:-2 / analyse=0x3:0x113 / me=umh / subme=8 / psy=1 / psy_rd=1.00:0.00 / mixed_ref=1 / me_range=16 / chroma_me=1 / trellis=2 / 8x8dct=1 / cqm=0 / deadzone=21,11 / fast_pskip=1 / chroma_qp_offset=-2 / threads=12 / lookahead_threads=2 / sliced_threads=0 / nr=0 / decimate=1 / interlaced=0 / bluray_compat=0 / constrained_intra=0 / bframes=3 / b_pyramid=2 / b_adapt=2 / b_bias=0 / direct=3 / weightb=1 / open_gop=0 / weightp=2 / keyint=240 / keyint_min=24 / scenecut=40 / intra_refresh=0 / rc_lookahead=50 / rc=2pass / mbtree=1 / bitrate=4275 / ratetol=1.0 / qcomp=0.60 / qpmin=0 / qpmax=69 / qpstep=4 / cplxblur=20.0 / qblur=0.5 / ip_ratio=1.40 / aq=1:1.00
Language : English
Default : Yes
Forced : No

Audio
ID : 2
Format : DTS
Format/Info : Digital Theater Systems
Mode : 16
Format settings, Endianness : Big
Codec ID : A_DTS
Duration : 1 h 48 min
Bit rate mode : Constant
Bit rate : 1 509 kb/s
Channel(s) : 6 channels
Channel positions : Front: L C R, Side: L R, LFE
Sampling rate : 48.0 kHz
Frame rate : 93.750 FPS (512 SPF)
Bit depth : 24 bits
Compression mode : Lossy
Stream size : 1.14 GiB (26%)
Language : English
Default : Yes
Forced : No

Menu
00:00:00.000 : en:00:00:00.000
00:04:02.958 : en:00:04:02.958
00:08:18.625 : en:00:08:18.625
00:11:05.417 : en:00:11:05.417
00:15:05.583 : en:00:15:05.583
00:21:24.208 : en:00:21:24.208
00:24:36.500 : en:00:24:36.500
00:27:00.208 : en:00:27:00.208
00:32:58.542 : en:00:32:58.542
00:38:22.667 : en:00:38:22.667
00:44:03.875 : en:00:44:03.875
00:47:46.958 : en:00:47:46.958
00:52:26.208 : en:00:52:26.208
00:56:36.583 : en:00:56:36.583
01:01:45.458 : en:01:01:45.458
01:07:28.083 : en:01:07:28.083
01:09:00.958 : en:01:09:00.958
01:13:27.458 : en:01:13:27.458
01:16:59.167 : en:01:16:59.167
01:22:12.167 : en:01:22:12.167
01:27:19.000 : en:01:27:19.000
01:32:04.333 : en:01:32:04.333
01:40:16.958 : en:01:40:16.958
01:43:53.375 : en:01:43:53.375





Young @ Heart (2008)


Young @ Heart (2008)


Young @ Heart (2008)


Young @ Heart (2008)


Young @ Heart (2008)