Tags
Language
Tags

Tengen Toppa Gurren Lagann (2007)

Posted By: Lebedev30
1080p (FullHD) / BluRay Remux IMDb
Tengen Toppa Gurren Lagann (2007)

Tengen Toppa Gurren Lagann (2007)
BD-Remux | m2ts | 1920x1080 | H264@~42 Mbps | 28x ~ 24mn | 28x ~7 Gb
Japanese PCM@1536 Kbps/English AC-3 448 Kbps/Russian DTS 384 Kbps | 2 channels/6 channels/2 channels | Subtitles: English, Russian
Genre: action, adventure, alien, comedy, humanoid alien, mecha, piloted robot, post-apocalyptic, science fiction, shounen, transforming craft


Description:
In the distant future, people build their homes and raise domestic animals in subterranean caverns called "pits". This way of life has persisted for hundreds of years, and yet, the people are still powerless against the earthquakes and cave-ins which occasionally devastate their villages. Jeeha is one such village…

One day, while digging tunnels to expand Jeeha's edges, a boy named Simon happens to find a small, shiny drill. Meanwhile, Kamina — Simon's soon-to-be "bro" — insists that there is another land above the village and tries to break through the ceiling in order to leave the cavern. He fails; however, an earthquake suddenly occurs, the ceiling collapses, and a gigantic robot — a "Ganmen" — crashes to the cave floor!

Kamina is now certain that there is a world above their tiny pit-village. Encouraged, he begins to fight recklessly against the robot, until he encounters another person who has arrived from the land above. She is a beautiful girl by the name of Youko, who has come from a neighbouring village with a rifle in hand. She has been hunting the robot, but her shots only seem to irritate it. Desperately trying to escape its attacks, Simon brings Kamina and Youko to what he had previously found: a mysterious robot with a head for a body.

And so begins the "epic" adventure…


01. Pierce the Heavens with Your Drill!
02. I Said I`d Ride It
03. You Two-Faced Son of a Bitch!
04. Does Having So Many Faces Make You Great?
05. I Don`t Understand It at All!
06. All of You Bastards Put Us in Hot Water!
07. You`ll Be the One To Do That!
08. Farewell Comrades!
09. Just What Exactly Is a Human?
10. Who Really Was Your Big Brother?
11. Simon, Please Remove Your Hand
12. Youko-san, I Have Something to Ask of You
13. Everybody, Eat to Your Heart`s Content
14. How Are You, Everyone?
15. I`ll Head Towards Tomorrow
16. Summary Episode
17. You Understand Nothing
18. I`ll Make You Tell the Truth of the World
19. We Must Survive. No Matter What It Takes!
20. Oh God, To How Far Will You Test Us?
21. You Must Survive
22. And to Space
23. Let`s Go, The Final Battle
24. We Will Never Forget, This Minute and Second
25. I Accept Your Dying Wish!
26. Let`s Go, Comrades!
27. All the Lights in the Sky are Stars
S1. I`ll See What I Wanna See!!


General
Format : BDAV
Format/Info : Blu-ray Video
File size : 7.14 GiB
Duration : 24mn 21s
Overall bit rate mode : Variable
Overall bit rate : 42.0 Mbps
Maximum Overall bit rate : 48.0 Mbps

Video
ID : 4113 (0x1011)
Menu ID : 1 (0x1)
Format : AVC
Format/Info : Advanced Video Codec
Format profile : High@L4.1
Format settings, CABAC : Yes
Format settings, ReFrames : 4 frames
Format settings, GOP : N=1
Codec ID : 27
Duration : 24mn 21s
Bit rate mode : Variable
Bit rate : 35.6 Mbps
Maximum bit rate : 38.0 Mbps
Width : 1 920 pixels
Height : 1 080 pixels
Display aspect ratio : 16:9
Frame rate : 23.976 fps
Color space : YUV
Chroma subsampling : 4:2:0
Bit depth : 8 bits
Scan type : Progressive
Bits/(Pixel*Frame) : 0.716
Stream size : 6.06 GiB (85%)

Audio #1
ID : 4352 (0x1100)
Menu ID : 1 (0x1)
Format : PCM
Format settings, Endianness : Big
Format settings, Sign : Signed
Muxing mode : Blu-ray
Codec ID : 128
Duration : 24mn 21s
Bit rate mode : Constant
Bit rate : 2 304 Kbps
Channel(s) : 2 channels
Channel positions : Front: L R
Sampling rate : 48.0 KHz
Bit depth : 24 bits
Stream size : 401 MiB (5%)

Audio #2
ID : 4353 (0x1101)
Menu ID : 1 (0x1)
Format : PCM
Format settings, Endianness : Big
Format settings, Sign : Signed
Muxing mode : Blu-ray
Codec ID : 128
Duration : 24mn 21s
Bit rate mode : Constant
Bit rate : 1 536 Kbps
Channel(s) : 2 channels
Channel positions : Front: L R
Sampling rate : 48.0 KHz
Bit depth : 16 bits
Stream size : 268 MiB (4%)

Audio #3
ID : 4354 (0x1102)
Menu ID : 1 (0x1)
Format : AC-3
Format/Info : Audio Coding 3
Mode extension : CM (complete main)
Format settings, Endianness : Big
Codec ID : 129
Duration : 24mn 21s
Bit rate mode : Constant
Bit rate : 448 Kbps
Channel(s) : 6 channels
Channel positions : Front: L C R, Side: L R, LFE
Sampling rate : 48.0 KHz
Bit depth : 16 bits
Compression mode : Lossy
Stream size : 78.1 MiB (1%)
Language : Russian

Audio #4
ID : 4355 (0x1103)
Menu ID : 1 (0x1)
Format : DTS
Format/Info : Digital Theater Systems
Mode : 16
Format settings, Endianness : Big
Codec ID : 130
Duration : 24mn 21s
Bit rate mode : Constant
Bit rate : 384 Kbps
Channel(s) : 2 channels
Channel positions : Front: L R
Sampling rate : 48.0 KHz
Bit depth : 16 bits
Compression mode : Lossy
Stream size : 66.9 MiB (1%)

Text #1
ID : 4608 (0x1200)
Menu ID : 1 (0x1)
Format : PGS
Codec ID : 144
Delay relative to video : 12s 930ms
Language : Russian

Text #2
ID : 4609 (0x1201)
Menu ID : 1 (0x1)
Format : PGS
Codec ID : 144
Delay relative to video : 12s 930ms
Language : Russian

Text #3
ID : 4610 (0x1202)
Menu ID : 1 (0x1)
Format : PGS
Codec ID : 144
Duration : 24mn 9s
Delay relative to video : 10s 678ms
Language : English


Screenshots

Tengen Toppa Gurren Lagann (2007)

Tengen Toppa Gurren Lagann (2007)

Tengen Toppa Gurren Lagann (2007)


My publications | Rss Channel

All episodes