Seikai no Monshou (1999) [7 DVD]

Posted By: Lebedev30
SD / DVD IMDb
Seikai no Monshou (1999) [7 DVD]

Seikai no Monshou (1999) [7 DVD]
DVD5 | ISO | NTSC 4:3 | 24.7 Gb
Audio: Japanese AC-3 48000 @ 448 Kbps
Subtitles: none
Genre: action, adventure, genetic modification, science fiction, space travel


Description:
* Based on the sci-fi novel series by Morioka Hiroyuki.

Linn Jinto's life changes forever when the Humankind Empire Abh takes over his home planet of Martine without firing a single shot. He is soon sent off to study the Abh language and culture and to prepare himself for his future as a nobleman — a future he never dreamed of, asked for, or even wanted.

Now, Jinto is entering the next phase of his training, and he is about to meet the first Abh in his life, the lovely Lafiel. However, Jinto is about to learn that there is more to her than meets the eye, and together they will have to fight for their very lives.

Contents:
TV Series, 13 episodes
Year: 03.01.1999 till 28.03.1999





Special features -> See the menu's screenshot


Seikai no Monshou (1999) [7 DVD]


Seikai no Monshou 01 DVD
DVD5 | ISO | NTSC 4:3 | 3.2 Gb
Audio: Japanese AC-3 48000 @ 448 Kbps



Video
ID : 224 (0xE0)
Format : MPEG Video
Format version : Version 2
Format profile : Main@Main
Format settings : CustomMatrix / BVOP
Format settings, BVOP : Yes
Format settings, Matrix : Custom
Format settings, GOP : Variable
Format settings, picture structure : Frame
Duration : 15 min 19 s
Bit rate mode : Variable
Bit rate : 8 711 kb/s
Maximum bit rate : 9 800 kb/s
Width : 720 pixels
Height : 480 pixels
Display aspect ratio : 4:3
Frame rate : 29.970 (30000/1001) FPS
Standard : NTSC
Color space : YUV
Chroma subsampling : 4:2:0
Bit depth : 8 bits
Scan type : Interlaced
Scan order : Top Field First
Compression mode : Lossy
Bits/(Pixel*Frame) : 0.841
Stream size : 954 MiB (93%)

Audio
ID : 189 (0xBD)-128 (0x80)
Format : AC-3
Format/Info : Audio Coding 3
Muxing mode : DVD-Video
Duration : 15 min 18 s
Bit rate mode : Constant
Bit rate : 448 kb/s
Channel(s) : 2 channels
Channel positions : Front: L R
Sampling rate : 48.0 kHz
Frame rate : 31.250 FPS (1536 SPF)
Bit depth : 16 bits
Compression mode : Lossy
Stream size : 49.1 MiB (5%)
Service kind : Complete Main


Seikai no Monshou (1999) [7 DVD]


Seikai no Monshou 02 DVD
DVD5 | ISO | NTSC 4:3 | 3.4 Gb
Audio: Japanese AC-3 48000 @ 448 Kbps



Video
ID : 224 (0xE0)
Format : MPEG Video
Format version : Version 2
Format profile : Main@Main
Format settings : CustomMatrix / BVOP
Format settings, BVOP : Yes
Format settings, Matrix : Custom
Format settings, GOP : Variable
Format settings, picture structure : Frame
Duration : 14 min 29 s
Bit rate mode : Variable
Bit rate : 9 235 kb/s
Maximum bit rate : 9 800 kb/s
Width : 720 pixels
Height : 480 pixels
Display aspect ratio : 4:3
Frame rate : 29.970 (30000/1001) FPS
Standard : NTSC
Color space : YUV
Chroma subsampling : 4:2:0
Bit depth : 8 bits
Scan type : Interlaced
Scan order : Top Field First
Compression mode : Lossy
Bits/(Pixel*Frame) : 0.892
Stream size : 957 MiB (93%)

Audio
ID : 189 (0xBD)-128 (0x80)
Format : AC-3
Format/Info : Audio Coding 3
Muxing mode : DVD-Video
Duration : 14 min 29 s
Bit rate mode : Constant
Bit rate : 448 kb/s
Channel(s) : 2 channels
Channel positions : Front: L R
Sampling rate : 48.0 kHz
Frame rate : 31.250 FPS (1536 SPF)
Bit depth : 16 bits
Compression mode : Lossy
Stream size : 46.4 MiB (5%)
Service kind : Complete Main


Seikai no Monshou (1999) [7 DVD]


Seikai no Monshou 03 DVD
DVD5 | ISO | NTSC 4:3 | 3.5 Gb
Audio: Japanese AC-3 48000 @ 448 Kbps



Video
ID : 224 (0xE0)
Format : MPEG Video
Format version : Version 2
Format profile : Main@Main
Format settings : CustomMatrix / BVOP
Format settings, BVOP : Yes
Format settings, Matrix : Custom
Format settings, GOP : M=3, N=12
Format settings, picture structure : Frame
Duration : 14 min 58 s
Bit rate mode : Variable
Bit rate : 8 918 kb/s
Maximum bit rate : 9 200 kb/s
Width : 720 pixels
Height : 480 pixels
Display aspect ratio : 4:3
Frame rate : 29.970 (30000/1001) FPS
Standard : Component
Color space : YUV
Chroma subsampling : 4:2:0
Bit depth : 8 bits
Scan type : Interlaced
Scan order : Top Field First
Compression mode : Lossy
Bits/(Pixel*Frame) : 0.861
Time code of first frame : 01:00:33:03
Time code source : Group of pictures header
GOP, Open/Closed : Open
GOP, Open/Closed of first frame : Closed
Stream size : 956 MiB (93%)
Color primaries : BT.601 NTSC
Transfer characteristics : BT.601
Matrix coefficients : BT.601

Audio
ID : 189 (0xBD)-128 (0x80)
Format : AC-3
Format/Info : Audio Coding 3
Muxing mode : DVD-Video
Duration : 14 min 58 s
Bit rate mode : Constant
Bit rate : 448 kb/s
Channel(s) : 2 channels
Channel positions : Front: L R
Sampling rate : 48.0 kHz
Frame rate : 31.250 FPS (1536 SPF)
Bit depth : 16 bits
Compression mode : Lossy
Stream size : 48.0 MiB (5%)
Service kind : Complete Main


Seikai no Monshou (1999) [7 DVD]


Seikai no Monshou 04 DVD
DVD5 | ISO | NTSC 4:3 | 3.5 Gb
Audio: Japanese AC-3 48000 @ 448 Kbps



Video
ID : 224 (0xE0)
Format : MPEG Video
Format version : Version 2
Format profile : Main@Main
Format settings : CustomMatrix / BVOP
Format settings, BVOP : Yes
Format settings, Matrix : Custom
Format settings, GOP : M=3, N=12
Format settings, picture structure : Frame
Duration : 14 min 51 s
Bit rate mode : Variable
Bit rate : 8 999 kb/s
Maximum bit rate : 9 200 kb/s
Width : 720 pixels
Height : 480 pixels
Display aspect ratio : 4:3
Frame rate : 29.970 (30000/1001) FPS
Standard : Component
Color space : YUV
Chroma subsampling : 4:2:0
Bit depth : 8 bits
Scan type : Interlaced
Scan order : Top Field First
Compression mode : Lossy
Bits/(Pixel*Frame) : 0.869
Time code of first frame : 01:00:33:02
Time code source : Group of pictures header
GOP, Open/Closed : Open
GOP, Open/Closed of first frame : Closed
Stream size : 956 MiB (93%)
Color primaries : BT.601 NTSC
Transfer characteristics : BT.601
Matrix coefficients : BT.601

Audio
ID : 189 (0xBD)-128 (0x80)
Format : AC-3
Format/Info : Audio Coding 3
Muxing mode : DVD-Video
Duration : 14 min 50 s
Bit rate mode : Constant
Bit rate : 448 kb/s
Channel(s) : 2 channels
Channel positions : Front: L R
Sampling rate : 48.0 kHz
Frame rate : 31.250 FPS (1536 SPF)
Bit depth : 16 bits
Compression mode : Lossy
Stream size : 47.6 MiB (5%)
Service kind : Complete Main


Seikai no Monshou (1999) [7 DVD]


Seikai no Monshou 05 DVD
DVD5 | ISO | NTSC 4:3 | 3.5 Gb
Audio: Japanese AC-3 48000 @ 448 Kbps



Video
ID : 224 (0xE0)
Format : MPEG Video
Format version : Version 2
Format profile : Main@Main
Format settings : CustomMatrix / BVOP
Format settings, BVOP : Yes
Format settings, Matrix : Custom
Format settings, GOP : M=3, N=12
Format settings, picture structure : Frame
Duration : 14 min 55 s
Bit rate mode : Variable
Bit rate : 8 957 kb/s
Maximum bit rate : 9 200 kb/s
Width : 720 pixels
Height : 480 pixels
Display aspect ratio : 4:3
Frame rate : 29.970 (30000/1001) FPS
Standard : Component
Color space : YUV
Chroma subsampling : 4:2:0
Bit depth : 8 bits
Scan type : Interlaced
Scan order : Top Field First
Compression mode : Lossy
Bits/(Pixel*Frame) : 0.865
Time code of first frame : 01:00:33:03
Time code source : Group of pictures header
GOP, Open/Closed : Open
GOP, Open/Closed of first frame : Closed
Stream size : 956 MiB (93%)
Color primaries : BT.601 NTSC
Transfer characteristics : BT.601
Matrix coefficients : BT.601

Audio
ID : 189 (0xBD)-128 (0x80)
Format : AC-3
Format/Info : Audio Coding 3
Muxing mode : DVD-Video
Duration : 14 min 54 s
Bit rate mode : Constant
Bit rate : 448 kb/s
Channel(s) : 2 channels
Channel positions : Front: L R
Sampling rate : 48.0 kHz
Frame rate : 31.250 FPS (1536 SPF)
Bit depth : 16 bits
Compression mode : Lossy
Stream size : 47.8 MiB (5%)
Service kind : Complete Main


Seikai no Monshou (1999) [7 DVD]


Seikai no Monshou 06 DVD
DVD5 | ISO | NTSC 4:3 | 3.4 Gb
Audio: Japanese AC-3 48000 @ 448 Kbps



Video
ID : 224 (0xE0)
Format : MPEG Video
Format version : Version 2
Format profile : Main@Main
Format settings : CustomMatrix / BVOP
Format settings, BVOP : Yes
Format settings, Matrix : Custom
Format settings, GOP : Variable
Format settings, picture structure : Frame
Duration : 14 min 36 s
Bit rate mode : Variable
Bit rate : 9 150 kb/s
Maximum bit rate : 9 800 kb/s
Width : 720 pixels
Height : 480 pixels
Display aspect ratio : 4:3
Frame rate : 29.970 (30000/1001) FPS
Standard : NTSC
Color space : YUV
Chroma subsampling : 4:2:0
Bit depth : 8 bits
Scan type : Interlaced
Scan order : Top Field First
Compression mode : Lossy
Bits/(Pixel*Frame) : 0.883
Stream size : 956 MiB (93%)

Audio
ID : 189 (0xBD)-128 (0x80)
Format : AC-3
Format/Info : Audio Coding 3
Muxing mode : DVD-Video
Duration : 14 min 36 s
Bit rate mode : Constant
Bit rate : 448 kb/s
Channel(s) : 2 channels
Channel positions : Front: L R
Sampling rate : 48.0 kHz
Frame rate : 31.250 FPS (1536 SPF)
Bit depth : 16 bits
Compression mode : Lossy
Stream size : 46.8 MiB (5%)
Service kind : Complete Main


Seikai no Monshou (1999) [7 DVD]


Seikai no Monshou 07 DVD
DVD5 | ISO | NTSC 4:3 | 4 Gb
Audio: Japanese AC-3 48000 @ 448 Kbps



Video
ID : 224 (0xE0)
Format : MPEG Video
Format version : Version 2
Format profile : Main@Main
Format settings : CustomMatrix / BVOP
Format settings, BVOP : Yes
Format settings, Matrix : Custom
Format settings, GOP : Variable
Format settings, picture structure : Frame
Duration : 14 min 52 s
Bit rate mode : Variable
Bit rate : 8 989 kb/s
Maximum bit rate : 9 800 kb/s
Width : 720 pixels
Height : 480 pixels
Display aspect ratio : 4:3
Frame rate : 29.970 (30000/1001) FPS
Standard : NTSC
Color space : YUV
Chroma subsampling : 4:2:0
Bit depth : 8 bits
Scan type : Interlaced
Scan order : Top Field First
Compression mode : Lossy
Bits/(Pixel*Frame) : 0.868
Stream size : 956 MiB (93%)

Audio
ID : 189 (0xBD)-128 (0x80)
Format : AC-3
Format/Info : Audio Coding 3
Muxing mode : DVD-Video
Duration : 14 min 51 s
Bit rate mode : Constant
Bit rate : 448 kb/s
Channel(s) : 2 channels
Channel positions : Front: L R
Sampling rate : 48.0 kHz
Frame rate : 31.250 FPS (1536 SPF)
Bit depth : 16 bits
Compression mode : Lossy
Stream size : 47.6 MiB (5%)
Service kind : Complete Main


Screenshots

Seikai no Monshou (1999) [7 DVD]

Seikai no Monshou (1999) [7 DVD]

Seikai no Monshou (1999) [7 DVD]