Tags
Language
Tags

BBC The Sky at Night - Space Boom Britain (2021)

Posted By: Tutorial
1080p (FullHD) / HDTV
BBC The Sky at Night - Space Boom Britain (2021)

BBC The Sky at Night - Space Boom Britain (2021)
HDTV | 1920 x 1080 | .MKV/AVC @ 3205 Kbps | 29 min 15 s | 698 MB
Audio: English AAC 132 Kbps, 2 channels | Subs: English
Genre: Documentary, Science

Britain's space industry is booming. According to UK Space Agency, its annual income now stands at ?16.4bn, and it employs over 45,000 people. Britain has always been a leader in the world's aerospace industries. Airbus's huge manufacturing plant in Stevenage was originally owned by de Havilland, where they made 'Blue Streak', Britain's intercontinental ballistic missile which became part of the ESA's 'Europa' rocket.

General
Unique ID : 234864806750074929601882528441618375579 (0xB0B15100EB33730554228AC7B13BA39B)
Complete name : BBC.The.Sky.at.Night.2021.Space.Boom.Britain.mkv
Format : Matroska
Format version : Version 4 / Version 2
File size : 698 MiB
Duration : 29 min 15 s
Overall bit rate : 3 338 kb/s
Movie name : The Sky at Night: Space Boom Britain []
Encoded date : UTC 2021-06-13 22:30:04
Writing application : mkvmerge v57.0.0 ('Till The End') 64-bit
Writing library : libebml v1.4.2 + libmatroska v1.6.4

Video
ID : 1
Format : AVC
Format/Info : Advanced Video Codec
Format profile : High@L4.1
Format settings : CABAC / 4 Ref Frames
Format settings, CABAC : Yes
Format settings, RefFrames : 4 frames
Codec ID : V_MPEG4/ISO/AVC
Duration : 29 min 15 s
Bit rate : 3 205 kb/s
Width : 1 920 pixels
Height : 1 080 pixels
Display aspect ratio : 16:9
Frame rate mode : Constant
Frame rate : 25.000 FPS
Color space : YUV
Chroma subsampling : 4:2:0
Bit depth : 8 bits
Scan type : Progressive
Bits/(Pixel*Frame) : 0.062
Stream size : 671 MiB (96%)
Writing library : x264 core 163 r3059 b684ebe
Encoding settings : cabac=1 / ref=4 / deblock=1:0:0 / analyse=0x3:0x113 / me=umh / subme=9 / psy=1 / psy_rd=1.00:0.00 / mixed_ref=1 / me_range=32 / chroma_me=1 / trellis=1 / 8x8dct=1 / cqm=0 / deadzone=21,11 / fast_pskip=0 / chroma_qp_offset=-2 / threads=18 / lookahead_threads=2 / sliced_threads=0 / nr=0 / decimate=1 / interlaced=0 / bluray_compat=0 / constrained_intra=0 / bframes=6 / b_pyramid=2 / b_adapt=2 / b_bias=0 / direct=1 / weightb=1 / open_gop=0 / weightp=2 / keyint=250 / keyint_min=25 / scenecut=40 / intra_refresh=0 / rc_lookahead=40 / rc=crf / mbtree=1 / crf=21.0 / qcomp=0.60 / qpmin=0 / qpmax=69 / qpstep=4 / ip_ratio=1.40 / aq=2:1.00
Language : English
Default : Yes
Forced : No
Color range : Limited
Color primaries : BT.709
Transfer characteristics : BT.709
Matrix coefficients : BT.709

Audio
ID : 2
Format : AAC
Format/Info : Advanced Audio Codec
Format profile : LC
Codec ID : A_AAC-2
Duration : 29 min 14 s
Bit rate : 132 kb/s
Channel(s) : 2 channels
Channel positions : Front: L R
Sampling rate : 48.0 kHz
Frame rate : 46.875 FPS (1024 SPF)
Compression mode : Lossy
Stream size : 27.2 MiB (4%)
Language : English
Default : Yes
Forced : No

Text
ID : 3
Format : UTF-8
Codec ID : S_TEXT/UTF8
Codec ID/Info : UTF-8 Plain Text
Duration : 28 min 42 s
Bit rate : 123 b/s
Count of elements : 593
Stream size : 25.9 KiB (0%)
Language : English
Default : No
Forced : No
Screenshots

BBC The Sky at Night - Space Boom Britain (2021)

BBC The Sky at Night - Space Boom Britain (2021)

BBC The Sky at Night - Space Boom Britain (2021)

Welcome to my blog - daily update!

BBC The Sky at Night - Space Boom Britain (2021)