20th Century Women (2016)

Posted By: JohnSmith
20th Century Women (2016)

20th Century Women (2016)
DVDScr | AVI / XviD@1740 kb/s | 720x336 | 1h 58mn | 1.66 GB | English: AC3, 256 kb/s (2 ch)
Genre: Comedy | Drama

The story of three women who explore love and freedom in Southern California during the late 1970s.

IMDB - Nominated for 1 Oscar. Another 8 wins & 64 nominations.



General
Complete name : D:\Downloads\20th.Century.Women.2016.DVDScr.XVID.AC3.HQ.Hive-CM8\20th.Century.Women.2016.DVDScr.XVID.AC3.HQ.Hive-CM8.avi
Format : AVI
Format/Info : Audio Video Interleave
File size : 1.66 GiB
Duration : 1 h 58 min
Overall bit rate : 2 005 kb/s
Writing application : Nandub v1.0rc2
Writing library : Nandub build 1853/release

Video
ID : 0
Format : MPEG-4 Visual
Format profile : Advanced Simple@L5
Format settings, BVOP : 2
Format settings, QPel : Yes
Format settings, GMC : No warppoints
Format settings, Matrix : Default (H.263)
Muxing mode : Packed bitstream
Codec ID : XVID
Codec ID/Hint : XviD
Duration : 1 h 58 min
Bit rate : 1 740 kb/s
Width : 720 pixels
Height : 336 pixels
Display aspect ratio : 2.143
Frame rate : 24.000 FPS
Color space : YUV
Chroma subsampling : 4:2:0
Bit depth : 8 bits
Scan type : Progressive
Compression mode : Lossy
Bits/(Pixel*Frame) : 0.300
Stream size : 1.44 GiB (87%)
Writing library : XviD 1.2.1 (UTC 2008-12-04)

Audio
ID : 1
Format : AC-3
Format/Info : Audio Coding 3
Mode extension : CM (complete main)
Format settings, Endianness : Big
Codec ID : 2000
Duration : 1 h 58 min
Bit rate mode : Constant
Bit rate : 256 kb/s
Channel(s) : 2 channels
Channel positions : Front: L R
Sampling rate : 48.0 kHz
Frame rate : 31.250 FPS (1536 spf)
Compression mode : Lossy
Delay relative to video : 18 ms
Stream size : 217 MiB (13%)
Alignment : Split accross interleaves
Interleave, duration : 42 ms (1.00 video frame)
Interleave, preload duratio : 500 ms




Screenshots

20th Century Women (2016)

20th Century Women (2016)

20th Century Women (2016)