Code Geass: Hangyaku no Lelouch (2006-2007)

Posted By: Lebedev30
1080p (FullHD) / WEBRip IMDb
Code Geass: Hangyaku no Lelouch (2006-2007)

Code Geass: Hangyaku no Lelouch (2006-2007)
WEBRip | MKV | 1920x1080 | H264@5192 Kbps | 25x ~ 25mn | 25x ~870 Mb
日本語 AAC@128 Kbps | 2 channels | Subtitles: English, العربية, Español, Português, Italiano, Deutsch, Français, Polski, Nederlands, Suomi, Türkçe, Svenska, Ελληνικά, עברית, ภาษาไทย, 한국어, Dansk, 日本語, 中文
Genre: action, mecha, military, piloted robot, science fiction, super power, violence


Description:
Japan has been invaded and conquered by the Britannian Empire. Japan is now known as Area 11 and its citizens known as Elevens. The Britannian Empire takes away Japan's autonomous power and imposes its rule through the use of Knightmares. The Empire's rule has never faltered, but cracks have begun to show…






01. The Day a New Demon Was Born
02. The White Knight Awakens
03. The False Classmate
04. His Name Is Zero
05. The Princess and the Witch
06. The Stolen Mask
07. Attack Cornelia
08. The Black Knights
09. Refrain
10. Guren Dances
11. Battle for Narita
12. The Messenger from Kyoto
13. Shirley at Gunpoint
14. Geass vs. Geass
15. Cheering Mao
16. Nunnally Held Hostage
17. Knight
18. I Order You, Suzaku Kururugi
19. Island of the Gods
20. The Battle for Kyushu
21. The School Festival Declaration
22. Bloodstained Euphy
23. At Least with Sorrow
24. The Collapsing Stage
25. Zero


General
Format : Matroska
Format version : Version 4 / Version 2
File size : 927 MiB
Duration : 24 min 20 s
Overall bit rate : 5 327 kb/s
Encoded date : UTC 2019-01-02 18:24:35
Writing application : mkvmerge v27.0.0 ('Metropolis') 64-bit
Writing library : libebml v1.3.6 + libmatroska v1.4.9

Video
ID : 1
Format : AVC
Format/Info : Advanced Video Codec
Format profile : High@L4
Format settings : CABAC / 4 Ref Frames
Format settings, CABAC : Yes
Format settings, RefFrames : 4 frames
Codec ID : V_MPEG4/ISO/AVC
Duration : 24 min 20 s
Bit rate : 5 192 kb/s
Width : 1 920 pixels
Height : 1 080 pixels
Display aspect ratio : 16:9
Frame rate mode : Constant
Frame rate : 23.976 (24000/1001) FPS
Color space : YUV
Chroma subsampling : 4:2:0
Bit depth : 8 bits
Scan type : Progressive
Bits/(Pixel*Frame) : 0.104
Stream size : 904 MiB (97%)
Writing library : x264 core 142
Encoding settings : cabac=1 / ref=4 / deblock=1:1:1 / analyse=0x3:0x113 / me=umh / subme=8 / psy=1 / psy_rd=0.40:0.00 / mixed_ref=1 / me_range=16 / chroma_me=1 / trellis=1 / 8x8dct=1 / cqm=0 / deadzone=21,11 / fast_pskip=1 / chroma_qp_offset=-2 / threads=12 / lookahead_threads=2 / sliced_threads=0 / nr=0 / decimate=1 / interlaced=0 / bluray_compat=0 / constrained_intra=0 / bframes=3 / b_pyramid=2 / b_adapt=2 / b_bias=0 / direct=3 / weightb=1 / open_gop=0 / weightp=2 / keyint=48 / keyint_min=24 / scenecut=40 / intra_refresh=0 / rc_lookahead=48 / rc=crf / mbtree=1 / crf=15.0 / qcomp=0.60 / qpmin=0 / qpmax=69 / qpstep=4 / vbv_maxrate=8000 / vbv_bufsize=12000 / crf_max=0.0 / nal_hrd=none / filler=0 / ip_ratio=1.40 / aq=1:0.60
Language : Japanese
Default : Yes
Forced : No

Audio
ID : 2
Format : AAC
Format/Info : Advanced Audio Codec
Format profile : LC
Codec ID : A_AAC-2
Duration : 24 min 20 s
Bit rate : 128 kb/s
Channel(s) : 2 channels
Channel positions : Front: L R
Sampling rate : 44.1 kHz
Frame rate : 43.066 FPS (1024 SPF)
Compression mode : Lossy
Delay relative to video : -83 ms
Stream size : 22.3 MiB (2%)
Language : Japanese
Default : Yes
Forced : No

Text #1
ID : 3
Format : ASS
Codec ID : S_TEXT/ASS
Codec ID/Info : Advanced Sub Station Alpha
Duration : 24 min 1 s
Bit rate : 153 b/s
Count of elements : 404
Compression mode : Lossless
Stream size : 27.0 KiB (0%)
Title : English(US)
Language : English
Default : Yes
Forced : No

Text #2
ID : 4
Format : ASS
Codec ID : S_TEXT/ASS
Codec ID/Info : Advanced Sub Station Alpha
Duration : 22 min 33 s
Bit rate : 136 b/s
Count of elements : 372
Compression mode : Lossless
Stream size : 22.6 KiB (0%)
Language : English
Default : No
Forced : No

Text #3
ID : 5
Format : ASS
Codec ID : S_TEXT/ASS
Codec ID/Info : Advanced Sub Station Alpha
Duration : 23 min 33 s
Bit rate : 153 b/s
Count of elements : 378
Compression mode : Lossless
Stream size : 26.6 KiB (0%)
Language : Arabic
Default : No
Forced : No

Text #4
ID : 6
Format : ASS
Codec ID : S_TEXT/ASS
Codec ID/Info : Advanced Sub Station Alpha
Duration : 23 min 33 s
Bit rate : 131 b/s
Count of elements : 378
Compression mode : Lossless
Stream size : 22.6 KiB (0%)
Language : Spanish
Default : No
Forced : No

Text #5
ID : 7
Format : ASS
Codec ID : S_TEXT/ASS
Codec ID/Info : Advanced Sub Station Alpha
Duration : 23 min 33 s
Bit rate : 132 b/s
Count of elements : 378
Compression mode : Lossless
Stream size : 22.9 KiB (0%)
Language : Spanish
Default : No
Forced : No

Text #6
ID : 8
Format : ASS
Codec ID : S_TEXT/ASS
Codec ID/Info : Advanced Sub Station Alpha
Duration : 23 min 32 s
Bit rate : 133 b/s
Count of elements : 378
Compression mode : Lossless
Stream size : 23.0 KiB (0%)
Language : Portuguese
Default : No
Forced : No

Text #7
ID : 9
Format : ASS
Codec ID : S_TEXT/ASS
Codec ID/Info : Advanced Sub Station Alpha
Duration : 23 min 33 s
Bit rate : 129 b/s
Count of elements : 378
Compression mode : Lossless
Stream size : 22.4 KiB (0%)
Language : Portuguese
Default : No
Forced : No

Text #8
ID : 10
Format : ASS
Codec ID : S_TEXT/ASS
Codec ID/Info : Advanced Sub Station Alpha
Duration : 23 min 33 s
Bit rate : 134 b/s
Count of elements : 377
Compression mode : Lossless
Stream size : 23.2 KiB (0%)
Language : German
Default : No
Forced : No

Text #9
ID : 11
Format : ASS
Codec ID : S_TEXT/ASS
Codec ID/Info : Advanced Sub Station Alpha
Duration : 22 min 33 s
Bit rate : 130 b/s
Count of elements : 339
Compression mode : Lossless
Stream size : 21.5 KiB (0%)
Language : French
Default : No
Forced : No

Text #10
ID : 12
Format : ASS
Codec ID : S_TEXT/ASS
Codec ID/Info : Advanced Sub Station Alpha
Duration : 22 min 32 s
Bit rate : 148 b/s
Count of elements : 370
Compression mode : Lossless
Stream size : 24.6 KiB (0%)
Language : Italian
Default : No
Forced : No

Text #11
ID : 13
Format : ASS
Codec ID : S_TEXT/ASS
Codec ID/Info : Advanced Sub Station Alpha
Duration : 23 min 33 s
Bit rate : 122 b/s
Count of elements : 377
Compression mode : Lossless
Stream size : 21.2 KiB (0%)
Language : Polish
Default : No
Forced : No

Text #12
ID : 14
Format : ASS
Codec ID : S_TEXT/ASS
Codec ID/Info : Advanced Sub Station Alpha
Duration : 22 min 33 s
Bit rate : 115 b/s
Count of elements : 336
Compression mode : Lossless
Stream size : 19.0 KiB (0%)
Language : Dutch
Default : No
Forced : No

Text #13
ID : 15
Format : ASS
Codec ID : S_TEXT/ASS
Codec ID/Info : Advanced Sub Station Alpha
Duration : 23 min 32 s
Bit rate : 132 b/s
Count of elements : 377
Compression mode : Lossless
Stream size : 22.8 KiB (0%)
Language : Norwegian Bokmal
Default : No
Forced : No

Text #14
ID : 16
Format : ASS
Codec ID : S_TEXT/ASS
Codec ID/Info : Advanced Sub Station Alpha
Duration : 23 min 33 s
Bit rate : 131 b/s
Count of elements : 378
Compression mode : Lossless
Stream size : 22.7 KiB (0%)
Language : Finnish
Default : No
Forced : No

Text #15
ID : 17
Format : ASS
Codec ID : S_TEXT/ASS
Codec ID/Info : Advanced Sub Station Alpha
Duration : 23 min 33 s
Bit rate : 130 b/s
Count of elements : 378
Compression mode : Lossless
Stream size : 22.6 KiB (0%)
Language : Turkish
Default : No
Forced : No

Text #16
ID : 18
Format : ASS
Codec ID : S_TEXT/ASS
Codec ID/Info : Advanced Sub Station Alpha
Duration : 23 min 33 s
Bit rate : 130 b/s
Count of elements : 377
Compression mode : Lossless
Stream size : 22.5 KiB (0%)
Language : Swedish
Default : No
Forced : No

Text #17
ID : 19
Format : ASS
Codec ID : S_TEXT/ASS
Codec ID/Info : Advanced Sub Station Alpha
Duration : 23 min 33 s
Bit rate : 187 b/s
Count of elements : 378
Compression mode : Lossless
Stream size : 32.4 KiB (0%)
Language : Greek
Default : No
Forced : No

Text #18
ID : 20
Format : ASS
Codec ID : S_TEXT/ASS
Codec ID/Info : Advanced Sub Station Alpha
Duration : 23 min 33 s
Bit rate : 148 b/s
Count of elements : 378
Compression mode : Lossless
Stream size : 25.6 KiB (0%)
Language : Hebrew
Default : No
Forced : No

Text #19
ID : 21
Format : ASS
Codec ID : S_TEXT/ASS
Codec ID/Info : Advanced Sub Station Alpha
Duration : 23 min 33 s
Bit rate : 130 b/s
Count of elements : 379
Compression mode : Lossless
Stream size : 22.5 KiB (0%)
Language : rom
Default : No
Forced : No

Text #20
ID : 22
Format : ASS
Codec ID : S_TEXT/ASS
Codec ID/Info : Advanced Sub Station Alpha
Duration : 23 min 32 s
Bit rate : 228 b/s
Count of elements : 379
Compression mode : Lossless
Stream size : 39.4 KiB (0%)
Language : Thai
Default : No
Forced : No

Text #21
ID : 23
Format : ASS
Codec ID : S_TEXT/ASS
Codec ID/Info : Advanced Sub Station Alpha
Duration : 24 min 4 s
Bit rate : 117 b/s
Count of elements : 380
Compression mode : Lossless
Stream size : 20.7 KiB (0%)
Language : Korean
Default : No
Forced : No

Text #22
ID : 24
Format : ASS
Codec ID : S_TEXT/ASS
Codec ID/Info : Advanced Sub Station Alpha
Duration : 23 min 32 s
Bit rate : 127 b/s
Count of elements : 377
Compression mode : Lossless
Stream size : 21.9 KiB (0%)
Language : Danish
Default : No
Forced : No

Text #23
ID : 25
Format : ASS
Codec ID : S_TEXT/ASS
Codec ID/Info : Advanced Sub Station Alpha
Duration : 24 min 3 s
Bit rate : 166 b/s
Count of elements : 465
Compression mode : Lossless
Stream size : 29.4 KiB (0%)
Language : Japanese
Default : No
Forced : No

Text #24
ID : 26
Format : ASS
Codec ID : S_TEXT/ASS
Codec ID/Info : Advanced Sub Station Alpha
Duration : 23 min 32 s
Bit rate : 109 b/s
Count of elements : 376
Compression mode : Lossless
Stream size : 18.9 KiB (0%)
Language : Chinese
Default : No
Forced : No

Text #25
ID : 27
Format : ASS
Codec ID : S_TEXT/ASS
Codec ID/Info : Advanced Sub Station Alpha
Duration : 23 min 33 s
Bit rate : 110 b/s
Count of elements : 376
Compression mode : Lossless
Stream size : 19.1 KiB (0%)
Language : Chinese
Default : No
Forced : No


Screenshots

Code Geass: Hangyaku no Lelouch (2006-2007)

Code Geass: Hangyaku no Lelouch (2006-2007)

Code Geass: Hangyaku no Lelouch (2006-2007)


My publications | Rss Channel