Tags
Language
Tags
April 2024
Su Mo Tu We Th Fr Sa
31 1 2 3 4 5 6
7 8 9 10 11 12 13
14 15 16 17 18 19 20
21 22 23 24 25 26 27
28 29 30 1 2 3 4

Kyoukai no Rinne (2015-2017)

Posted By: Lebedev30
1080p (FullHD) / WEBRip IMDb
Kyoukai no Rinne (2015-2017)

Kyoukai no Rinne (2015-2017)
WEBRip | MKV | 1920x1080 | H264@2519 Kbps | 75x ~ 25mn | 75x ~450 Mb
日本語 AAC@128 Kbps | 2 channels | Subtitles: English, Español, Português
Genre: comedy, contemporary fantasy, fantasy, high school, magic, romance, school life, shounen


Description:
High school student Mamiya Sakura began to see ghosts and ghouls after she was tricked into taking a trip to the otherworld as a child. However, cool and collected, she is not extremely phased when she finds out that her always-absent classmate Rokudou Rinne is actually working as a shinigami (god of death) on the side, helping lost spirits reach the wheel of reincarnation. Although he is a talented young man with shinigami blood in his veins, he is extremely poor, and is forced to rely on Sakura's assistance, monetary or otherwise, to solve many of his cases.










01. The Mysterious Classmate
02. Memories of the Red Ring
03. Freak of the Club Building
04. If You Don`t Mind Starting as Friends
05. Hanako-san
06. Voices of the Roadside Shrine
07. Curse of the Rabbit Hutch
08. Welcome to Hell!
09. The Wig`s Disappointment and the Pumpkin`s Temptation
10. Damashigami Company
11. The Young President`s Induction?!
12. Ageha the Shinigami
13. Naggy
14. It`s Not a Date!
15. Just a Thank You
16. Memories of the Haunted Cedar
17. Curse of the Power Stone
18. Kain the Shirushigami
19. In the Box
20. A Home Without Spirits
21. M`s Tragedy
22. Merry Christmas in the Derelict
23. Fox Trap
24. Spirited Ramen
25. Target: Sakura
01. Black Cat Oboro
02. Court of Dreams / Inside the Letter Box
03. The Missing Membership Fee
04. Song of Love
05. Digging Up Memories / Can I Borrow Money? / Demon at the Campground
06. Homestay Trainee
07. Coaching Responsibilities
08. The Cursed Straw Doll
09. Mikazukido for All Your Scythe Needs
10. Black Cat 6th Dan
11. Monsters of the Summer Festival
12. Ghost Inflatable Boat / Something in the Tunnel / Welcome to Nehan-ya!
13. The Mysterious Transfer Student
14. Renge`s Revenge
15. Recovery Cream / The Rumor / Mushroom Hunting
16. Break-up Kit
17. Shinigami Elementary School Reunion
18. Black Cat Ranking Exam
19. MVC
20. Hot Pot Conductor / Demon Type A, Shinigami Type B
21. Have My Scarf / Waiting on the Rink
22. Never Change…
23. Shinigami Sakura?!
24. Matsugo Returns?!
25. Sakura`s Wager
01. Gold License
02. The Cursed Ace / Draw Me
03. Wheel of Reincarnation Cleanup Day / Infinite Malice / A Puppy in the Rain
04. Ane at the Shopping Mall
05. Kuroboshi Sansei / The Lucky Pot / Bamboo Shoot in Rainbow Color
06. Special Protected Sacred Bird / June Bride / The Safe from Hell
07. Wandering Power Stone / Poltergeist / The Taboo in the Shinigami World
08. Open After Seven Days / Silver Scythe / Prince of the Shinigami
09. Apologize in the Altar Room / Goddess of Wisdom / River of Treasure
10. The First Union Meeting / An Ominous Prophecy
11. Mystery of the Flower Field / I Will Lend You My Right Arm / Black Report Card
12. Evil Spirit in the Summer House / Eggplant Romance / One Coin Investigation
13. Otome the Shinigami
14. Lies and Truth
15. Kokkuri-san / Cursed Piggy Bank / The Hated Sansei
16. Curse of Splurge / The Cursed Peep Ball
17. Head Man / When You Wish Upon the Moon / The First Saury Festival
18. The Practical Training for Capturing a Dream Demon
19. Nothing Inside / Mystery of Koshikudake Hill / Effect of the Matsutake Mushroom
20. Wings of Celebration / Kabakichi-kun / Scream of a Cassette Tape
21. Black Square Thing / Shortcut Through the Alley
22. A Ring and Stamp / Food at the Porch / Black Cat Children`s Association
23. Good Luck Wax / Maneko and Kotomi / Where`s My Money?!
24. Supplemental Class for Fierce Dog Catching / Money Spirit / Evil Spirit`s Legacy
25. A Promise in the Underworld


General
Format : Matroska
Format version : Version 4 / Version 2
File size : 465 MiB
Duration : 24 min 31 s
Overall bit rate : 2 650 kb/s
Encoded date : UTC 2017-09-11 16:29:13
Writing application : mkvmerge v12.0.0 ('Trust / Lust') 64bit
Writing library : libebml v1.3.4 + libmatroska v1.4.5

Video
ID : 1
Format : AVC
Format/Info : Advanced Video Codec
Format profile : High@L4
Format settings : CABAC / 4 Ref Frames
Format settings, CABAC : Yes
Format settings, RefFrames : 4 frames
Codec ID : V_MPEG4/ISO/AVC
Duration : 24 min 31 s
Bit rate : 2 519 kb/s
Width : 1 920 pixels
Height : 1 080 pixels
Display aspect ratio : 16:9
Frame rate mode : Constant
Frame rate : 23.976 (24000/1001) FPS
Color space : YUV
Chroma subsampling : 4:2:0
Bit depth : 8 bits
Scan type : Progressive
Bits/(Pixel*Frame) : 0.051
Stream size : 442 MiB (95%)
Writing library : x264 core 142
Encoding settings : cabac=1 / ref=4 / deblock=1:1:1 / analyse=0x3:0x113 / me=hex / subme=6 / psy=1 / psy_rd=0.40:0.00 / mixed_ref=1 / me_range=16 / chroma_me=1 / trellis=1 / 8x8dct=1 / cqm=0 / deadzone=21,11 / fast_pskip=1 / chroma_qp_offset=-2 / threads=8 / lookahead_threads=1 / sliced_threads=0 / nr=0 / decimate=1 / interlaced=0 / bluray_compat=0 / constrained_intra=0 / bframes=5 / b_pyramid=2 / b_adapt=1 / b_bias=0 / direct=1 / weightb=1 / open_gop=0 / weightp=1 / keyint=120 / keyint_min=24 / scenecut=40 / intra_refresh=0 / rc_lookahead=30 / rc=crf / mbtree=1 / crf=20.0 / qcomp=0.60 / qpmin=0 / qpmax=69 / qpstep=4 / vbv_maxrate=6142 / vbv_bufsize=9213 / crf_max=0.0 / nal_hrd=none / filler=0 / ip_ratio=1.40 / aq=1:0.60
Default : Yes
Forced : No

Audio
ID : 2
Format : AAC
Format/Info : Advanced Audio Codec
Format profile : LC
Codec ID : A_AAC-2
Duration : 24 min 31 s
Bit rate : 128 kb/s
Channel(s) : 2 channels
Channel positions : Front: L R
Sampling rate : 44.1 kHz
Frame rate : 43.066 FPS (1024 SPF)
Compression mode : Lossy
Delay relative to video : -83 ms
Stream size : 22.5 MiB (5%)
Default : Yes
Forced : No

Text #1
ID : 3
Format : ASS
Codec ID : S_TEXT/ASS
Codec ID/Info : Advanced Sub Station Alpha
Duration : 24 min 19 s
Bit rate : 171 b/s
Count of elements : 449
Compression mode : Lossless
Stream size : 30.6 KiB (0%)
Title : English(US)
Default : Yes
Forced : No

Text #2
ID : 4
Format : ASS
Codec ID : S_TEXT/ASS
Codec ID/Info : Advanced Sub Station Alpha
Duration : 24 min 20 s
Bit rate : 151 b/s
Count of elements : 411
Compression mode : Lossless
Stream size : 27.0 KiB (0%)
Title : Español
Default : No
Forced : No

Text #3
ID : 5
Format : ASS
Codec ID : S_TEXT/ASS
Codec ID/Info : Advanced Sub Station Alpha
Duration : 24 min 20 s
Bit rate : 166 b/s
Count of elements : 444
Compression mode : Lossless
Stream size : 29.7 KiB (0%)
Title : Português(Brasil)
Default : No
Forced : No


Screenshots

Kyoukai no Rinne (2015-2017)

Kyoukai no Rinne (2015-2017)

Kyoukai no Rinne (2015-2017)


My publications | Rss Channel