Tags
Language
Tags

Phantasy Star Online 2 the Animation (2016)

Posted By: Lebedev30
1080p (FullHD) / WEBRip IMDb
Phantasy Star Online 2 the Animation (2016)

Phantasy Star Online 2 the Animation (2016)
WEBRip | MKV | 1920x1080 | H264@7356 Kbps | 12x ~ 25mn | 12x ~1.2 Gb
日本語 AAC@128 Kbps | 2 channels | Subtitles: English
Genre: Action, Fantasy


Description:
Phantasy Star Online 2 is the hottest game to hit the market. Just ask anyone at Seiga Academy — anyone except for Tachibana Itsuki, that is. Unlike his peers, Itsuki does not play video games and ended up missing out on this big trend. Thankfully, he has other good qualities. He gets good grades. He has perfect attendance. And, to the delight of his friends, he makes the perfect substitute for any afterschool activity. Who knew it was possible to be a jack of all trades in high school clubs?

Itsuki's abilities attract the attention of student council president, Izumi Rina. While Itsuki is the perfect image of mediocrity, Rina is a vision of excellence: she is good looking, popular, an amazing athlete, and she has excellent grades. There is nothing she cannot do… except for keep an eye on the extracurricular activities of the student body, of course. Rina recruits Itsuki as the new vice president of the student council and asks him to play Phantasy Star Online 2. Because the game is an MMO, it has a social aspect and she wants to know if it is affecting the student body negatively. But first, Itsuki has to learn how to play the game!






01. The RPG That Begins with "Nice to Meet You"
02. The Aloof Warrior
03. Roleplay
04. Phantasy Star Offline
05. Aika
06. Forbidden PSO2
07. Disappearance
08. Turning Point
09. Discharge Notice
10. Vessel
11. The Dark Falz
12. The RPG That Crosses Boundaries


General
Format : Matroska
Format version : Version 4 / Version 2
File size : 1.26 GiB
Duration : 24 min 10 s
Overall bit rate : 7 486 kb/s
Encoded date : UTC 2019-09-16 00:54:13
Writing application : mkvmerge v26.0.0 ('In The Game') 64-bit
Writing library : libebml v1.3.6 + libmatroska v1.4.9

Video
ID : 1
Format : AVC
Format/Info : Advanced Video Codec
Format profile : High@L4
Format settings : CABAC / 4 Ref Frames
Format settings, CABAC : Yes
Format settings, RefFrames : 4 frames
Codec ID : V_MPEG4/ISO/AVC
Duration : 24 min 10 s
Bit rate : 7 356 kb/s
Width : 1 920 pixels
Height : 1 080 pixels
Display aspect ratio : 16:9
Frame rate mode : Constant
Frame rate : 23.976 (24000/1001) FPS
Color space : YUV
Chroma subsampling : 4:2:0
Bit depth : 8 bits
Scan type : Progressive
Bits/(Pixel*Frame) : 0.148
Stream size : 1.24 GiB (98%)
Writing library : x264 core 142
Encoding settings : cabac=1 / ref=4 / deblock=1:1:1 / analyse=0x3:0x113 / me=umh / subme=8 / psy=1 / psy_rd=0.40:0.00 / mixed_ref=1 / me_range=16 / chroma_me=1 / trellis=1 / 8x8dct=1 / cqm=0 / deadzone=21,11 / fast_pskip=1 / chroma_qp_offset=-2 / threads=12 / lookahead_threads=2 / sliced_threads=0 / nr=0 / decimate=1 / interlaced=0 / bluray_compat=0 / constrained_intra=0 / bframes=3 / b_pyramid=2 / b_adapt=2 / b_bias=0 / direct=3 / weightb=1 / open_gop=0 / weightp=2 / keyint=48 / keyint_min=24 / scenecut=40 / intra_refresh=0 / rc_lookahead=48 / rc=crf / mbtree=1 / crf=15.0 / qcomp=0.60 / qpmin=0 / qpmax=69 / qpstep=4 / vbv_maxrate=8000 / vbv_bufsize=12000 / crf_max=0.0 / nal_hrd=none / filler=0 / ip_ratio=1.40 / aq=1:0.60
Default : Yes
Forced : No

Audio
ID : 2
Format : AAC
Format/Info : Advanced Audio Codec
Format profile : LC
Codec ID : A_AAC-2
Duration : 24 min 10 s
Bit rate : 128 kb/s
Channel(s) : 2 channels
Channel positions : Front: L R
Sampling rate : 44.1 kHz
Frame rate : 43.066 FPS (1024 SPF)
Compression mode : Lossy
Delay relative to video : -83 ms
Stream size : 22.1 MiB (2%)
Default : Yes
Forced : No

Text
ID : 3
Format : ASS
Codec ID : S_TEXT/ASS
Codec ID/Info : Advanced Sub Station Alpha
Duration : 20 min 52 s
Bit rate : 165 b/s
Count of elements : 370
Compression mode : Lossless
Stream size : 25.3 KiB (0%)
Title : English_US
Language : English
Default : Yes
Forced : No


Screenshots

Phantasy Star Online 2 the Animation (2016)

Phantasy Star Online 2 the Animation (2016)

Phantasy Star Online 2 the Animation (2016)


My publications | Rss Channel